<?xml version="1.0" standalone="no"?>
<!DOCTYPE svg PUBLIC "-//W3C//DTD SVG 1.1//EN" "http://www.w3.org/Graphics/SVG/1.1/DTD/svg11.dtd" >
<svg xmlns="http://www.w3.org/2000/svg" xmlns:xlink="http://www.w3.org/1999/xlink" version="1.1">
<metadata>
Created by FontForge 20200427 at Sat Jan 27 17:50:54 2018
 By www
</metadata>
<defs>
<font id="fa-light" horiz-adv-x="512" >
  <font-face 
    font-family="Font Awesome 5"
    font-weight="100"
    font-stretch="normal"
    units-per-em="512"
    panose-1="2 0 2 3 0 0 0 0 0 0"
    ascent="409"
    descent="-103"
    bbox="-1 -1.26316 640.56 513.128"
    underline-thickness="0"
    underline-position="0"
    unicode-range="U+F000-F424"
  />
<missing-glyph 
 />
    <glyph glyph-name=".notdef" 
 />
    <glyph glyph-name=".notdef" 
 />
    <glyph glyph-name=".null" horiz-adv-x="0" 
 />
    <glyph glyph-name="nonmarkingreturn" 
 />
    <glyph glyph-name="glass-martini" unicode="&#xf000;" 
d="M508 27q7 -8 2.5 -17.5t-14.5 -9.5h-480q-10 0 -14.5 9.5t2.5 17.5l236 267v186h-118q-11 0 -18.5 7.5t-7.5 18.5q0 6 6 6h308q6 0 6 -6q0 -11 -7.5 -18.5t-18.5 -7.5h-118v-186zM460 32l-204 232l-204 -232h408z" />
    <glyph glyph-name="music" unicode="&#xf001;" 
d="M470 2l-288 96q-22 7 -22 30v272q-27 -16 -64 -16q-40 0 -68 18.5t-28 45.5q0 26 28 45t68 19t68 -19t28 -45v-222l288 -96v206q-27 -16 -64 -16q-40 0 -68 18.5t-28 45.5q0 26 28 45t68 19t68 -19t28 -45v-352q0 -16 -13.5 -25.5t-28.5 -4.5zM96 484q-27 0 -47.5 -11
t-20.5 -25q0 -16 22.5 -26t45.5 -10q27 0 47.5 11t20.5 25q0 16 -22.5 26t-45.5 10zM192 192v-64l288 -96v64zM416 420q-27 0 -47.5 -11t-20.5 -25q0 -16 22.5 -26t45.5 -10q27 0 47.5 11t20.5 25q0 16 -22.5 26t-45.5 10z" />
    <glyph glyph-name="search" unicode="&#xf002;" 
d="M508 482l-128 -129q-4 -4 -9 -4h-10q55 -60 55 -141q0 -86 -61 -147t-147 -61t-147 61t-61 147t61 147t147 61q81 0 141 -55v10q0 5 4 9l129 128q8 9 17 0l9 -9q9 -9 0 -17zM208 384q-73 0 -124.5 -51.5t-51.5 -124.5t51.5 -124.5t124.5 -51.5t124.5 51.5t51.5 124.5
t-51.5 124.5t-124.5 51.5z" />
    <glyph glyph-name="heart" unicode="&#xf004;" 
d="M404 24q-56 0 -116 55q-60 -55 -116 -55q-68 0 -108 39.5t-40 108.5q0 25 9 50.5t23.5 44.5t22 28t13.5 14l170 169q11 10 26 10t26 -10l170 -168v-1q13 -12 25.5 -27.5t27.5 -47.5t15 -62q0 -69 -40 -108.5t-108 -39.5zM461 287l-170 168q-3 3 -6 0l-171 -169
q-24 -22 -41 -53.5t-17 -60.5q0 -55 30.5 -85.5t85.5 -30.5q49 0 116 67q1 0 3 -3q64 -64 113 -64q55 0 85.5 30.5t30.5 85.5q0 57 -59 115z" />
    <glyph glyph-name="star" unicode="&#xf005;" 
d="M528 172l-146 -22l-65 -132q-9 -18 -29 -18t-29 18l-65 132l-146 22q-20 2 -26 21t8 33l106 103l-25 146q-3 19 13 31t33 2l131 -68l131 68q17 9 33 -2.5t13 -30.5l-25 -146l106 -103q14 -14 8 -33t-26 -21zM406 318l28 162l-146 -76l-146 76l28 -162l-118 -115l163 -23
l73 -148l73 148l162 23z" />
    <glyph glyph-name="user" unicode="&#xf007;" 
d="M431 313l-49 -14q50 -51 50 -123q0 -73 -51.5 -124.5t-124.5 -51.5t-124.5 51.5t-51.5 124.5q0 72 50 123l-49 14q-42 12 -61.5 44t-19.5 63v28q0 26 19 45t45 19h384q26 0 45 -19t19 -45v-28q0 -31 -19.5 -63t-61.5 -44zM256 32q60 0 102 42t42 102t-42 102t-102 42
t-102 -42t-42 -102t42 -102t102 -42zM480 448q0 13 -9.5 22.5t-22.5 9.5h-384q-13 0 -22.5 -9.5t-9.5 -22.5v-28q0 -26 16 -47.5t42 -29.5l70 -20q44 29 96 29t96 -29l70 20q26 8 42 29.5t16 47.5v28z" />
    <glyph glyph-name="film" unicode="&#xf008;" 
d="M488 64h-8v20q0 12 -12 12h-40q-12 0 -12 -12v-20h-320v20q0 12 -12 12h-40q-12 0 -12 -12v-20h-8q-10 0 -17 7t-7 17v336q0 10 7 17t17 7h8v-20q0 -12 12 -12h40q12 0 12 12v20h320v-20q0 -12 12 -12h40q12 0 12 12v20h8q10 0 17 -7t7 -17v-336q0 -10 -7 -17t-17 -7z
M96 372q0 12 -12 12h-40q-12 0 -12 -12v-40q0 -12 12 -12h40q12 0 12 12v40zM96 276q0 12 -12 12h-40q-12 0 -12 -12v-40q0 -12 12 -12h40q12 0 12 12v40zM96 180q0 12 -12 12h-40q-12 0 -12 -12v-40q0 -12 12 -12h40q12 0 12 12v40zM384 404q0 12 -12 12h-232
q-12 0 -12 -12v-120q0 -12 12 -12h232q12 0 12 12v120zM384 228q0 12 -12 12h-232q-12 0 -12 -12v-120q0 -12 12 -12h232q12 0 12 12v120zM480 372q0 12 -12 12h-40q-12 0 -12 -12v-40q0 -12 12 -12h40q12 0 12 12v40zM480 276q0 12 -12 12h-40q-12 0 -12 -12v-40
q0 -12 12 -12h40q12 0 12 12v40zM480 180q0 12 -12 12h-40q-12 0 -12 -12v-40q0 -12 12 -12h40q12 0 12 12v40z" />
    <glyph glyph-name="th-large" unicode="&#xf009;" 
d="M0 80v352q0 20 14 34t34 14h416q20 0 34 -14t14 -34v-352q0 -20 -14 -34t-34 -14h-416q-20 0 -34 14t-14 34zM240 64v176h-208v-160q0 -7 4.5 -11.5t11.5 -4.5h192zM32 432v-160h208v176h-192q-7 0 -11.5 -4.5t-4.5 -11.5zM272 448v-176h208v160q0 7 -4.5 11.5t-11.5 4.5
h-192zM480 240h-208v-176h192q7 0 11.5 4.5t4.5 11.5v160z" />
    <glyph glyph-name="th" unicode="&#xf00a;" 
d="M0 80v352q0 20 14 34t34 14h416q20 0 34 -14t14 -34v-352q0 -20 -14 -34t-34 -14h-416q-20 0 -34 14t-14 34zM320 64v107h-128v-107h128zM480 309h-128v-106h128v106zM320 309h-128v-106h128v106zM32 203h128v106h-128v-106zM160 64v107h-128v-91q0 -7 4.5 -11.5
t11.5 -4.5h112zM32 432v-91h128v107h-112q-7 0 -11.5 -4.5t-4.5 -11.5zM192 448v-107h128v107h-128zM352 448v-107h128v91q0 7 -4.5 11.5t-11.5 4.5h-112zM480 171h-128v-107h112q7 0 11.5 4.5t4.5 11.5v91z" />
    <glyph glyph-name="th-list" unicode="&#xf00b;" 
d="M0 80v352q0 20 14 34t34 14h416q20 0 34 -14t14 -34v-352q0 -20 -14 -34t-34 -14h-416q-20 0 -34 14t-14 34zM480 80v91h-288v-107h272q7 0 11.5 4.5t4.5 11.5zM480 309h-288v-106h288v106zM32 203h128v106h-128v-106zM160 64v107h-128v-91q0 -7 4.5 -11.5t11.5 -4.5h112
zM32 432v-91h128v107h-112q-7 0 -11.5 -4.5t-4.5 -11.5zM192 448v-107h288v91q0 7 -4.5 11.5t-11.5 4.5h-272z" />
    <glyph glyph-name="check" unicode="&#xf00c;" 
d="M414 92l-281 280l-99 -99q-8 -9 -16 0l-12 11q-8 9 0 17l119 119q8 9 17 0l300 -300q8 -8 0 -17l-12 -11q-8 -9 -16 0z" />
    <glyph glyph-name="times" unicode="&#xf00d;" 
d="M218 256l137 -137q8 -9 0 -17l-9 -9q-8 -8 -17 0l-137 137l-137 -137q-9 -8 -17 0l-9 9q-8 8 0 17l138 137l-138 137q-8 9 0 17l9 9q3 3 8 3t9 -3l137 -137l137 137q9 8 17 0l9 -9q8 -8 0 -17z" />
    <glyph glyph-name="search-plus" unicode="&#xf00e;" 
d="M320 204v8q0 5 -3.5 8.5t-8.5 3.5h-84v84q0 5 -3.5 8.5t-8.5 3.5h-8q-5 0 -8.5 -3.5t-3.5 -8.5v-84h-84q-5 0 -8.5 -3.5t-3.5 -8.5v-8q0 -5 3.5 -8.5t8.5 -3.5h84v-84q0 -5 3.5 -8.5t8.5 -3.5h8q5 0 8.5 3.5t3.5 8.5v84h84q5 0 8.5 3.5t3.5 8.5zM508 497l-11 11
q-9 9 -17 0l-129 -129q-3 -3 -3 -8v-9q-60 54 -140 54q-86 0 -146.5 -60t-61.5 -145q-1 -88 61 -150t150 -61q85 1 145 61.5t60 146.5q0 80 -54 140h9q5 0 8 3l129 129q9 8 0 17zM384 208q0 -73 -51.5 -124.5t-124.5 -51.5t-124.5 51.5t-51.5 124.5t51.5 124.5t124.5 51.5
t124.5 -51.5t51.5 -124.5z" />
    <glyph glyph-name="search-minus" unicode="&#xf010;" 
d="M308 224h-200q-5 0 -8.5 -3.5t-3.5 -8.5v-8q0 -5 3.5 -8.5t8.5 -3.5h200q5 0 8.5 3.5t3.5 8.5v8q0 5 -3.5 8.5t-8.5 3.5zM508 497l-11 11q-9 9 -17 0l-129 -129q-3 -3 -3 -8v-9q-60 54 -140 54q-86 0 -146.5 -60t-61.5 -145q-1 -88 61 -150t150 -61q85 1 145 61.5
t60 146.5q0 80 -54 140h9q5 0 8 3l129 129q9 8 0 17zM384 208q0 -73 -51.5 -124.5t-124.5 -51.5t-124.5 51.5t-51.5 124.5t51.5 124.5t124.5 51.5t124.5 -51.5t51.5 -124.5z" />
    <glyph glyph-name="power-off" unicode="&#xf011;" 
d="M388 46q54 34 85 89.5t31 120.5q0 103 -72.5 175.5t-175 72.5t-175.5 -72.5t-73 -175.5q0 -65 31 -120.5t85 -89.5q10 -7 16 4l4 7q6 10 -4 17q-46 29 -73 77.5t-27 104.5q0 90 63.5 153t152.5 63q90 0 153 -63.5t63 -152.5q0 -57 -27 -105t-73 -77q-10 -6 -4 -16l4 -7
q6 -11 16 -5zM272 276v-264q0 -12 -12 -12h-8q-12 0 -12 12v264q0 12 12 12h8q12 0 12 -12z" />
    <glyph glyph-name="signal" unicode="&#xf012;" 
d="M6 384h20q6 0 6 6v116q0 6 -6 6h-20q-6 0 -6 -6v-116q0 -6 6 -6zM128 342v164q0 6 6 6h20q6 0 6 -6v-164q0 -6 -6 -6h-20q-6 0 -6 6zM256 262v244q0 6 6 6h20q6 0 6 -6v-244q0 -6 -6 -6h-20q-6 0 -6 6zM384 150v356q0 6 6 6h20q6 0 6 -6v-356q0 -6 -6 -6h-20q-6 0 -6 6z
M512 6v500q0 6 6 6h20q6 0 6 -6v-500q0 -6 -6 -6h-20q-6 0 -6 6z" />
    <glyph glyph-name="cog" unicode="&#xf013;" 
d="M483 299l-33 -19q2 -12 2 -24t-2 -24l33 -19q16 -10 11 -28q-17 -56 -58 -99q-13 -14 -29 -5l-33 19q-19 -15 -42 -24v-38q0 -19 -19 -23q-57 -14 -114 0q-19 4 -19 23v38q-23 9 -42 24l-33 -19q-16 -9 -29 5q-41 43 -58 99q-5 18 11 28l33 19q-2 12 -2 24t2 24l-33 19
q-16 10 -11 28q17 56 58 99q13 14 29 5l33 -19q19 15 42 24v38q0 19 19 23q57 14 114 0q19 -4 19 -23v-38q23 -9 42 -24l33 19q16 9 29 -5q41 -43 58 -99q5 -18 -11 -28zM417 400l-46 -27q-21 17 -33.5 24.5t-37.5 16.5v54q-22 4 -44 4t-44 -4v-54q-25 -9 -37.5 -16
t-33.5 -25l-46 27q-30 -34 -44 -76l46 -27q-5 -27 -5 -41t5 -41l-46 -27q14 -42 44 -76l46 27q21 -18 33.5 -25t37.5 -16v-54q22 -4 44 -4t44 4v54q25 9 37.5 16t33.5 25l46 -27q30 34 44 76l-46 27q5 27 5 41t-5 41l46 27q-14 42 -44 76zM256 160q-40 0 -68 28t-28 68
t28 68t68 28t68 -28t28 -68t-28 -68t-68 -28zM256 320q-26 0 -45 -19t-19 -45t19 -45t45 -19t45 19t19 45t-19 45t-45 19z" />
    <glyph glyph-name="home" unicode="&#xf015;" 
d="M510 228l-62 -50v-76q0 -6 -6 -6h-20q-6 0 -6 6v50l-140 -113q-9 -7 -20 -7t-20 7l-234 189q-5 3 -1 8l13 16q4 4 8 0l42 -33v229q0 13 9.5 22.5t22.5 9.5h116q5 0 8.5 -3.5t3.5 -8.5v-132h64v132q0 5 3.5 8.5t8.5 3.5h116q13 0 22.5 -9.5t9.5 -22.5v-229l42 34q4 3 8 -1
l13 -16q3 -5 -1 -8zM416 448h-96v-132q0 -12 -12 -12h-104q-5 0 -8.5 3.5t-3.5 8.5v132h-96v-255l156 -126q4 -3 8 0l156 126v255z" />
    <glyph glyph-name="clock" unicode="&#xf017;" 
d="M256 8q-103 0 -175.5 72.5t-72.5 175.5t72.5 175.5t175.5 72.5t175.5 -72.5t72.5 -175.5t-72.5 -175.5t-175.5 -72.5zM472 256q0 89 -63 152.5t-153 63.5q-89 0 -152.5 -63t-63.5 -153q0 -89 63 -152.5t153 -63.5q89 0 152.5 63t63.5 153zM323 344l-81 -59q-5 -3 -5 -9
v-160q0 -5 3.5 -8.5t8.5 -3.5h14q5 0 8.5 3.5t3.5 8.5v146l71 52q9 7 2 16l-8 12q-7 9 -17 2z" />
    <glyph glyph-name="road" unicode="&#xf018;" 
d="M260 442l6 -116q0 -6 6 -6h32q6 0 6 6l6 116q0 6 -6 6h-44q-6 0 -6 -6zM272 288h32q5 0 4 -5l-3 -86q-1 -5 -5 -5h-24q-4 0 -5 5l-3 86q-1 5 4 5zM277 168h22q4 0 4 -4l-2 -48q0 -4 -4 -4h-18q-4 0 -4 4l-2 48q0 4 4 4zM279 96h18q3 0 3 -3l-1 -26q0 -3 -3 -3h-16
q-2 0 -3 3l-1 26q0 1 1 2t2 1zM6 448h43q4 0 5 -4l118 -376q1 -4 -3 -4h-18q-2 0 -3 2l-148 374q-1 3 1 5.5t5 2.5zM527 448h43q3 0 5 -2.5t1 -5.5l-148 -374q-1 -2 -3 -2h-18q-4 0 -3 4l118 376q1 4 5 4z" />
    <glyph glyph-name="download" unicode="&#xf019;" 
d="M452 432q0 8 -6 14t-14 6t-14 -6t-6 -14t6 -14t14 -6t14 6t6 14zM368 412q-8 0 -14 6t-6 14t6 14t14 6t14 -6t6 -14t-6 -14t-14 -6zM512 364v104q0 18 -13 31t-31 13h-424q-18 0 -31 -13t-13 -31v-104q0 -18 13 -31t31 -13h99l-56 -56q-19 -19 -8.5 -44t36.5 -25h53v-155
q0 -17 11.5 -28.5t28.5 -11.5h96q17 0 28.5 11.5t11.5 28.5v155h53q26 0 36.5 25t-8.5 44l-56 56h99q18 0 31 13t13 31zM250 382q6 5 12 0l140 -141q4 -4 2 -9t-7 -5h-85v-187q0 -8 -8 -8h-96q-8 0 -8 8v187h-85q-5 0 -7 5t2 9zM480 364q0 -12 -12 -12h-131l-53 52
q-11 12 -28 12t-28 -12l-53 -52h-131q-5 0 -8.5 3.5t-3.5 8.5v104q0 5 3.5 8.5t8.5 3.5h424q12 0 12 -12v-104z" />
    <glyph glyph-name="inbox" unicode="&#xf01c;" 
d="M567 227l-105 -143q-6 -8 -17 -14t-21 -6h-272q-10 0 -21 6t-17 14l-105 143q-9 13 -9 29v144q0 20 14 34t34 14h480q20 0 34 -14t14 -34v-144q0 -16 -9 -29zM140 103q4 -7 12 -7h272q8 0 12 7l89 121h-137l-32 64h-136l-32 -64h-137zM544 272v128q0 7 -4.5 11.5
t-11.5 4.5h-480q-7 0 -11.5 -4.5t-4.5 -11.5v-128q0 -7 4.5 -11.5t11.5 -4.5h120l32 64h176l32 -64h120q7 0 11.5 4.5t4.5 11.5z" />
    <glyph glyph-name="redo" unicode="&#xf01e;" 
d="M492 8h-10q-12 0 -12 12v111q-33 -57 -90 -90t-125 -33q-102 0 -174.5 73t-72.5 175q0 103 72.5 175.5t175.5 72.5q95 0 166 -64q10 -8 1 -17l-7 -7q-8 -8 -17 -1q-61 55 -143 55q-88 0 -151 -62.5t-63 -151.5q0 -88 62.5 -151t151.5 -63q61 0 112 31.5t78 84.5h-114
q-12 0 -12 12v10q0 12 12 12h160q12 0 12 -12v-160q0 -12 -12 -12z" />
    <glyph glyph-name="sync" unicode="&#xf021;" 
d="M492 8h-10q-12 0 -12 12v111q-33 -56 -90 -89.5t-124 -33.5q-99 0 -171 68.5t-77 166.5q0 6 3.5 9.5t8.5 3.5h10q12 0 12 -11q5 -85 66.5 -144t147.5 -59q61 0 112 31.5t78 84.5h-114q-12 0 -12 12v10q0 12 12 12h160q12 0 12 -12v-160q0 -12 -12 -12zM492 256h-10
q-12 0 -12 11q-5 85 -66.5 144t-147.5 59q-61 0 -112 -31.5t-78 -84.5h114q12 0 12 -12v-10q0 -12 -12 -12h-160q-12 0 -12 12v160q0 12 12 12h10q12 0 12 -12v-111q33 56 90 89.5t124 33.5q99 0 171 -68.5t77 -166.5q0 -6 -3.5 -9.5t-8.5 -3.5z" />
    <glyph glyph-name="list-alt" unicode="&#xf022;" 
d="M464 64q7 0 11.5 4.5t4.5 11.5v352q0 7 -4.5 11.5t-11.5 4.5h-416q-7 0 -11.5 -4.5t-4.5 -11.5v-352q0 -7 4.5 -11.5t11.5 -4.5h416zM464 32h-416q-20 0 -34 14t-14 34v352q0 20 14 34t34 14h416q20 0 34 -14t14 -34v-352q0 -20 -14 -34t-34 -14zM128 128
q-13 0 -22.5 9.5t-9.5 22.5t9.5 22.5t22.5 9.5t22.5 -9.5t9.5 -22.5t-9.5 -22.5t-22.5 -9.5zM128 224q-13 0 -22.5 9.5t-9.5 22.5t9.5 22.5t22.5 9.5t22.5 -9.5t9.5 -22.5t-9.5 -22.5t-22.5 -9.5zM128 320q-13 0 -22.5 9.5t-9.5 22.5t9.5 22.5t22.5 9.5t22.5 -9.5t9.5 -22.5
t-9.5 -22.5t-22.5 -9.5zM416 172v-24q0 -6 -6 -6h-212q-6 0 -6 6v24q0 6 6 6h212q6 0 6 -6zM416 268v-24q0 -6 -6 -6h-212q-6 0 -6 6v24q0 6 6 6h212q6 0 6 -6zM416 364v-24q0 -6 -6 -6h-212q-6 0 -6 6v24q0 6 6 6h212q6 0 6 -6z" />
    <glyph glyph-name="lock" unicode="&#xf023;" 
d="M400 224h-16v-62q0 -67 -46.5 -114.5t-113 -47.5t-113.5 47t-47 113v64h-16q-20 0 -34 14t-14 34v192q0 20 14 34t34 14h352q20 0 34 -14t14 -34v-192q0 -20 -14 -34t-34 -14zM96 160q0 -53 37.5 -90.5t90.5 -37.5t90.5 37.5t37.5 90.5v64h-256v-64zM400 480h-352
q-7 0 -11.5 -4.5t-4.5 -11.5v-192q0 -7 4.5 -11.5t11.5 -4.5h352q7 0 11.5 4.5t4.5 11.5v192q0 7 -4.5 11.5t-11.5 4.5z" />
    <glyph glyph-name="flag" unicode="&#xf024;" 
d="M344 75q-26 0 -80.5 -17.5t-90.5 -17.5q-41 0 -77 14q3 -22 -12.5 -38.5t-37.5 -15.5q-18 1 -31.5 14t-14.5 31q-1 17 8 30t24 18v407q0 5 3.5 8.5t8.5 3.5h8q5 0 8.5 -3.5t3.5 -8.5v-122q63 -29 136 -29q26 0 80.5 17.5t90.5 17.5q67 0 130 -43q11 -7 11 -20v-261
q0 -14 -11 -21t-23 -1q-80 37 -134 37zM48 28q8 0 14 6t6 14t-6 14t-14 6t-14 -6t-6 -14t6 -14t14 -6zM480 317q-48 35 -109 35q-31 0 -85.5 -17.5t-85.5 -17.5q-81 0 -136 26v-236q48 -35 109 -35q31 0 85.5 17.5t85.5 17.5q63 0 136 -35v245z" />
    <glyph glyph-name="headphones" unicode="&#xf025;" 
d="M256 32q-106 0 -181 75t-75 181v51q0 10 8 14l24 14v1q0 46 33 79t79 33h24q10 0 17 -7t7 -17v-176q0 -10 -7 -17t-17 -7h-24q-37 0 -66 21.5t-40 55.5l-6 -3v-42q0 -93 65.5 -158.5t158.5 -65.5t158.5 65.5t65.5 158.5v42l-6 3q-11 -34 -40 -55.5t-66 -21.5h-24
q-10 0 -17 7t-7 17v176q0 10 7 17t17 7h24q46 0 79 -33t33 -79v-1l24 -14q8 -4 8 -14v-51q0 -106 -75 -181t-181 -75zM144 288h16v160h-16q-33 0 -56.5 -23.5t-23.5 -56.5t23.5 -56.5t56.5 -23.5zM368 448h-16v-160h16q33 0 56.5 23.5t23.5 56.5t-23.5 56.5t-56.5 23.5z" />
    <glyph glyph-name="volume-off" unicode="&#xf026;" 
d="M256 88v336q0 16 -15 22t-26 -5l-89 -89h-102q-10 0 -17 -7t-7 -17v-144q0 -10 7 -17t17 -7h102l89 -89q11 -11 26 -5t15 22zM224 107l-78 78q-7 7 -17 7h-97v128h97q10 0 17 7l78 78v-298z" />
    <glyph glyph-name="volume-down" unicode="&#xf027;" 
d="M342 181q-6 -4 -12.5 -2t-10 7.5t-1.5 12t7 9.5q27 17 27 48t-27 48q-5 3 -7 9.5t1.5 12t10 7.5t12.5 -2q42 -26 42 -75t-42 -75zM256 88v336q0 16 -15 22t-26 -5l-89 -89h-102q-10 0 -17 -7t-7 -17v-144q0 -10 7 -17t17 -7h102l89 -89q11 -11 26 -5t15 22zM224 107
l-78 78q-7 7 -17 7h-97v128h97q10 0 17 7l78 78v-298z" />
    <glyph glyph-name="volume-up" unicode="&#xf028;" 
d="M576 256q0 74 -36.5 137.5t-97.5 101.5q-6 3 -12.5 1.5t-10 -7t-1.5 -12t7 -9.5q55 -34 87 -90t32 -122t-32 -122t-87 -90q-5 -3 -7 -9.5t1.5 -12t10 -7t12.5 1.5q61 38 97.5 101.5t36.5 137.5zM480 256q0 -49 -24 -90.5t-64 -66.5q-6 -4 -12.5 -2t-10 7.5t-1.5 12t7 9.5
q34 21 53.5 55.5t19.5 74.5t-19.5 74.5t-53.5 55.5q-5 3 -7 9.5t1.5 12t10 7.5t12.5 -2q40 -25 64 -66.5t24 -90.5zM342 181q-6 -4 -12.5 -2t-10 7.5t-1.5 12t7 9.5q27 17 27 48t-27 48q-5 3 -7 9.5t1.5 12t10 7.5t12.5 -2q42 -26 42 -75t-42 -75zM256 88v336q0 16 -15 22
t-26 -5l-89 -89h-102q-10 0 -17 -7t-7 -17v-144q0 -10 7 -17t17 -7h102l89 -89q11 -11 26 -5t15 22zM224 107l-78 78q-7 7 -17 7h-97v128h97q10 0 17 7l78 78v-298z" />
    <glyph glyph-name="qrcode" unicode="&#xf029;" 
d="M0 224h192v-192h-192v192zM32 64h128v128h-128v-128zM256 32v192h192v-192h-192zM416 192h-128v-128h128v128zM0 480h192v-192h-192v192zM32 320h128v128h-128v-128zM64 96h64v64h-64v-64zM384 160h-64v-64h64v64zM64 352h64v64h-64v-64zM416 288h32v128h-128v-32h-32v96
h-32v-192h96v32h64v-32zM416 448h32v32h-32v-32zM352 448h32v32h-32v-32z" />
    <glyph glyph-name="barcode" unicode="&#xf02a;" 
d="M0 448v-384h18v384h-18zM27 448v-384h9v384h-9zM54 448v-384h9v384h-9zM99 448v-384h9v384h-9zM135 448v-384h18v384h-18zM180 448v-384h9v384h-9zM198 448v-384h9v384h-9zM216 448v-384h9v384h-9zM251 448v-384h18v384h-18zM296 448v-384h18v384h-18zM332 448v-384h18
v384h-18zM368 448v-384h18v384h-18zM395 448v-384h18v384h-18zM440 448v-384h27v384h-27zM476 448v-384h9v384h-9zM494 448v-384h18v384h-18z" />
    <glyph glyph-name="tag" unicode="&#xf02b;" 
d="M498 226l-212 -212q-14 -14 -34 -14h-204q-20 0 -34 14t-14 34v204q0 20 14 34l212 212q14 14 34 14t34 -14l204 -204q14 -14 14 -34t-14 -34zM475 271l-204 204q-11 12 -22 0l-212 -212q-5 -4 -5 -11v-204q0 -7 4.5 -11.5t11.5 -4.5h204q7 0 11 5l212 212q12 11 0 22z
M144 124q8 0 14 6t6 14t-6 14t-14 6t-14 -6t-6 -14t6 -14t14 -6zM144 96q-20 0 -34 14t-14 34t14 34t34 14t34 -14t14 -34t-14 -34t-34 -14z" />
    <glyph glyph-name="tags" unicode="&#xf02c;" 
d="M626 294l-204 204q-14 14 -34 14t-34 -14l-2 -2l23 -22l2 1q11 12 22 0l204 -204q12 -11 0 -22l-212 -212q-4 -5 -11 -5h-19l-32 -32h51q20 0 34 14l212 212q14 14 14 34t-14 34zM252 32h-204q-7 0 -11.5 4.5t-4.5 11.5v204q0 7 5 11l212 212q11 12 22 0l204 -204
q12 -11 0 -22l-212 -212q-4 -5 -11 -5zM252 0q20 0 34 14l212 212q14 14 14 34t-14 34l-204 204q-14 14 -34 14t-34 -14l-212 -212q-14 -14 -14 -34v-204q0 -20 14 -34t34 -14h204zM144 124q-8 0 -14 6t-6 14t6 14t14 6t14 -6t6 -14t-6 -14t-14 -6zM144 96q20 0 34 14t14 34
t-14 34t-34 14t-34 -14t-14 -34t14 -34t34 -14z" />
    <glyph glyph-name="book" unicode="&#xf02d;" 
d="M356 160h-168q-12 0 -12 -12v-8q0 -12 12 -12h168q12 0 12 12v8q0 12 -12 12zM368 212v-8q0 -12 -12 -12h-168q-12 0 -12 12v8q0 12 12 12h168q12 0 12 -12zM433 480h3q12 0 12 12v8q0 12 -12 12h-356q-33 0 -56.5 -23.5t-23.5 -56.5v-352q0 -33 23.5 -56.5t56.5 -23.5
h344q10 0 17 7t7 17v368q0 16 -15 22q-7 32 0 66zM128 384h288v-352h-288v352zM32 400q21 -16 48 -16h16v-352h-16q-20 0 -34 14t-14 34v320zM404 480q-5 -32 0 -64h-324q-30 0 -42.5 16t0 32t42.5 16h324z" />
    <glyph glyph-name="bookmark" unicode="&#xf02e;" 
d="M336 0h-288q-20 0 -34 14t-14 34v464l192 -112l192 112v-464q0 -20 -14 -34t-34 -14zM352 456l-160 -93l-160 93v-408q0 -7 4.5 -11.5t11.5 -4.5h288q7 0 11.5 4.5t4.5 11.5v408z" />
    <glyph glyph-name="print" unicode="&#xf02f;" 
d="M416 192v-110q0 -10 -7 -17l-58 -58q-7 -7 -17 -7h-214q-10 0 -17 7t-7 17v168q-40 0 -68 28t-28 68v136q0 10 7 17t17 7h72v40q0 10 7 17t17 7h272q10 0 17 -7t7 -17v-40h72q10 0 17 -7t7 -17v-136q0 -40 -28 -68t-68 -28zM128 32h203l53 53v171h-256v-224zM384 480
h-256v-96h256v96zM480 416h-64v-40q0 -10 -7 -17t-17 -7h-272q-10 0 -17 7t-7 17v40h-64v-128q0 -26 19 -45t45 -19v40q0 10 7 17t17 7h272q10 0 17 -7t7 -17v-40q26 0 45 19t19 45v128zM452 304q0 8 -6 14t-14 6t-14 -6t-6 -14t6 -14t14 -6t14 6t6 14z" />
    <glyph glyph-name="camera" unicode="&#xf030;" 
d="M324 64q6 0 8 5l22 59h110q7 0 11.5 4.5t4.5 11.5v288q0 7 -4.5 11.5t-11.5 4.5h-416q-7 0 -11.5 -4.5t-4.5 -11.5v-288q0 -7 4.5 -11.5t11.5 -4.5h110l20 -54q4 -10 15 -10h131zM324 32h-131q-15 0 -27 8.5t-18 22.5l-12 33h-88q-20 0 -34 14t-14 34v288q0 20 14 34
t34 14h416q20 0 34 -14t14 -34v-288q0 -20 -14 -34t-34 -14h-88l-14 -38q-10 -26 -38 -26zM256 408q-50 0 -85 -35t-35 -85t35 -85t85 -35t85 35t35 85t-35 85t-85 35zM256 200q-36 0 -62 26t-26 62t26 62t62 26t62 -26t26 -62t-26 -62t-62 -26z" />
    <glyph glyph-name="font" unicode="&#xf031;" 
d="M233 32h-18q-8 0 -11 8l-153 408h-23q-5 0 -8.5 3.5t-3.5 8.5v8q0 5 3.5 8.5t8.5 3.5h88q5 0 8.5 -3.5t3.5 -8.5v-8q0 -5 -3.5 -8.5t-8.5 -3.5h-28l45 -120h182l45 120h-28q-5 0 -8.5 3.5t-3.5 8.5v8q0 5 3.5 8.5t8.5 3.5h88q5 0 8.5 -3.5t3.5 -8.5v-8q0 -5 -3.5 -8.5
t-8.5 -3.5h-23l-153 -408q-3 -8 -11 -8zM145 295l75 -201q2 -5 4 -11q2 6 4 11l75 201h-158z" />
    <glyph glyph-name="bold" unicode="&#xf032;" 
d="M249 242q53 -30 53 -96q0 -31 -13.5 -58t-35.5 -39q-30 -17 -77 -17h-164q-5 0 -8.5 3.5t-3.5 8.5v8q0 5 3.5 8.5t8.5 3.5h20v384h-20q-5 0 -8.5 3.5t-3.5 8.5v8q0 5 3.5 8.5t8.5 3.5h170q42 0 67 -10q32 -14 51.5 -45.5t19.5 -71t-19.5 -69.5t-51.5 -42zM66 64h110
q37 0 57 13q34 21 34 69q0 37 -22 60t-58 23h-121v-165zM233 440q-18 8 -51 8h-116v-187h124q43 0 69 26t26 68q0 30 -14 52.5t-38 32.5z" />
    <glyph glyph-name="italic" unicode="&#xf033;" 
d="M103 64h45l-75 384h-49q-10 0 -12 10l-2 8q-1 5 2.5 9.5t9.5 4.5h129q10 0 12 -10l1 -8q1 -5 -2.5 -9.5t-8.5 -4.5h-46l75 -384h50q10 0 12 -10l2 -8q1 -5 -2.5 -9.5t-9.5 -4.5h-130q-9 0 -11 10l-2 8q-1 5 2.5 9.5t9.5 4.5z" />
    <glyph glyph-name="text-height" unicode="&#xf034;" 
d="M0 116v-72q0 -12 12 -12h264q12 0 12 12v72q0 12 -12 12h-8q-5 0 -8.5 -3.5t-3.5 -8.5v-52h-95v384h43q12 0 12 12v8q0 12 -12 12h-120q-12 0 -12 -12v-8q0 -12 12 -12h43v-384h-95v52q0 5 -3.5 8.5t-8.5 3.5h-8q-12 0 -12 -12zM394 35l-40 48q-3 3 -1 8t7 5h24v320h-24
q-5 0 -7 4.5t1 8.5l40 48q6 7 12 0l40 -48q3 -3 1 -8t-7 -5h-24v-320h24q5 0 7 -4.5t-1 -8.5l-40 -48q-6 -7 -12 0z" />
    <glyph glyph-name="text-width" unicode="&#xf035;" 
d="M0 116v-72q0 -12 12 -12h424q12 0 12 12v72q0 12 -12 12h-8q-5 0 -8.5 -3.5t-3.5 -8.5v-52h-175v256h43q5 0 8.5 3.5t3.5 8.5v8q0 5 -3.5 8.5t-8.5 3.5h-120q-5 0 -8.5 -3.5t-3.5 -8.5v-8q0 -5 3.5 -8.5t8.5 -3.5h43v-256h-175v52q0 5 -3.5 8.5t-8.5 3.5h-8
q-5 0 -8.5 -3.5t-3.5 -8.5zM445 426l-48 -40q-3 -3 -8 -1t-5 7v24h-320v-24q0 -5 -4.5 -7t-8.5 1l-48 40q-7 6 0 12l48 40q3 3 8 1t5 -7v-24h320v24q0 5 4.5 7t8.5 -1l48 -40q7 -6 0 -12z" />
    <glyph glyph-name="align-left" unicode="&#xf036;" 
d="M288 52v24q0 6 -6 6h-276q-6 0 -6 -6v-24q0 -6 6 -6h276q6 0 6 6zM6 210h436q6 0 6 -6v-24q0 -6 -6 -6h-436q-6 0 -6 6v24q0 6 6 6zM6 466h436q6 0 6 -6v-24q0 -6 -6 -6h-436q-6 0 -6 6v24q0 6 6 6zM282 302h-276q-6 0 -6 6v24q0 6 6 6h276q6 0 6 -6v-24q0 -6 -6 -6z" />
    <glyph glyph-name="align-center" unicode="&#xf037;" 
d="M352 52v24q0 6 -6 6h-244q-6 0 -6 -6v-24q0 -6 6 -6h244q6 0 6 6zM6 210h436q6 0 6 -6v-24q0 -6 -6 -6h-436q-6 0 -6 6v24q0 6 6 6zM6 466h436q6 0 6 -6v-24q0 -6 -6 -6h-436q-6 0 -6 6v24q0 6 6 6zM346 302h-244q-6 0 -6 6v24q0 6 6 6h244q6 0 6 -6v-24q0 -6 -6 -6z" />
    <glyph glyph-name="align-right" unicode="&#xf038;" 
d="M160 76v-24q0 -6 6 -6h276q6 0 6 6v24q0 6 -6 6h-276q-6 0 -6 -6zM6 210h436q6 0 6 -6v-24q0 -6 -6 -6h-436q-6 0 -6 6v24q0 6 6 6zM6 466h436q6 0 6 -6v-24q0 -6 -6 -6h-436q-6 0 -6 6v24q0 6 6 6zM166 338h276q6 0 6 -6v-24q0 -6 -6 -6h-276q-6 0 -6 6v24q0 6 6 6z" />
    <glyph glyph-name="align-justify" unicode="&#xf039;" 
d="M0 76v-24q0 -6 6 -6h436q6 0 6 6v24q0 6 -6 6h-436q-6 0 -6 -6zM6 210h436q6 0 6 -6v-24q0 -6 -6 -6h-436q-6 0 -6 6v24q0 6 6 6zM6 466h436q6 0 6 -6v-24q0 -6 -6 -6h-436q-6 0 -6 6v24q0 6 6 6zM6 338h436q6 0 6 -6v-24q0 -6 -6 -6h-436q-6 0 -6 6v24q0 6 6 6z" />
    <glyph glyph-name="list" unicode="&#xf03a;" 
d="M506 114h-372q-6 0 -6 -6v-24q0 -6 6 -6h372q6 0 6 6v24q0 6 -6 6zM512 268v-24q0 -6 -6 -6h-372q-6 0 -6 6v24q0 6 6 6h372q6 0 6 -6zM512 428v-24q0 -6 -6 -6h-372q-6 0 -6 6v24q0 6 6 6h372q6 0 6 -6zM84 120v-48q0 -12 -12 -12h-48q-12 0 -12 12v48q0 12 12 12h48
q12 0 12 -12zM84 280v-48q0 -12 -12 -12h-48q-12 0 -12 12v48q0 12 12 12h48q12 0 12 -12zM84 440v-48q0 -12 -12 -12h-48q-12 0 -12 12v48q0 12 12 12h48q12 0 12 -12z" />
    <glyph glyph-name="outdent" unicode="&#xf03b;" 
d="M0 76v-24q0 -6 6 -6h436q6 0 6 6v24q0 6 -6 6h-436q-6 0 -6 -6zM198 210h244q6 0 6 -6v-24q0 -6 -6 -6h-244q-6 0 -6 6v24q0 6 6 6zM6 466h436q6 0 6 -6v-24q0 -6 -6 -6h-436q-6 0 -6 6v24q0 6 6 6zM198 338h244q6 0 6 -6v-24q0 -6 -6 -6h-244q-6 0 -6 6v24q0 6 6 6z
M128 160v192q0 11 -10 15t-17 -4l-96 -96q-12 -11 0 -22l96 -96q7 -8 17 -4t10 15zM96 313v-114l-57 57z" />
    <glyph glyph-name="indent" unicode="&#xf03c;" 
d="M0 76v-24q0 -6 6 -6h436q6 0 6 6v24q0 6 -6 6h-436q-6 0 -6 -6zM166 210h276q6 0 6 -6v-24q0 -6 -6 -6h-276q-6 0 -6 6v24q0 6 6 6zM6 466h436q6 0 6 -6v-24q0 -6 -6 -6h-436q-6 0 -6 6v24q0 6 6 6zM166 338h276q6 0 6 -6v-24q0 -6 -6 -6h-276q-6 0 -6 6v24q0 6 6 6z
M0 352v-192q0 -11 10 -15t17 4l96 96q12 11 0 22l-96 96q-7 8 -17 4t-10 -15zM32 199v114l57 -57z" />
    <glyph glyph-name="video" unicode="&#xf03d;" 
d="M528 64h-12q-20 0 -34 14l-98 98v-64q0 -20 -14 -34t-34 -14h-288q-20 0 -34 14t-14 34v288q0 20 14 34t34 14h288q20 0 34 -14t14 -34v-64l98 98q14 14 34 14h12q20 0 34 -14t14 -34v-288q0 -20 -14 -34t-34 -14zM352 400q0 7 -4.5 11.5t-11.5 4.5h-288q-7 0 -11.5 -4.5
t-4.5 -11.5v-288q0 -7 4.5 -11.5t11.5 -4.5h288q7 0 11.5 4.5t4.5 11.5v288zM544 400q0 7 -4.5 11.5t-11.5 4.5h-12q-7 0 -11 -5l-121 -120v-70l121 -120q4 -5 11 -5h12q7 0 11.5 4.5t4.5 11.5v288z" />
    <glyph glyph-name="image" unicode="&#xf03e;" 
d="M464 64h-416q-20 0 -34 14t-14 34v288q0 20 14 34t34 14h416q20 0 34 -14t14 -34v-288q0 -20 -14 -34t-34 -14zM480 400q0 7 -4.5 11.5t-11.5 4.5h-416q-7 0 -11.5 -4.5t-4.5 -11.5v-288q0 -7 4.5 -11.5t11.5 -4.5h416q7 0 11.5 4.5t4.5 11.5v288zM112 232
q23 0 39.5 -16.5t16.5 -39.5t-16.5 -39.5t-39.5 -16.5t-39.5 16.5t-16.5 39.5t16.5 39.5t39.5 16.5zM112 152q10 0 17 7t7 17t-7 17t-17 7t-17 -7t-7 -17t7 -17t17 -7zM319 175l-95 95l-31 -31q-7 -7 -17 -7t-17 7l-88 88q-7 7 -7 17v28q0 5 3.5 8.5t8.5 3.5h360
q5 0 8.5 -3.5t3.5 -8.5v-92q0 -10 -7 -17l-88 -88q-7 -7 -17 -7t-17 7zM416 352h-320v-5l80 -80l48 48l112 -112l80 80v69z" />
    <glyph glyph-name="pencil" unicode="&#xf040;" 
d="M493 56l-37 -37q-19 -19 -45.5 -19t-45.5 19l-352 352l-13 114q-1 12 7 20t20 7l114 -13l352 -352q19 -19 19 -45.5t-19 -45.5zM398 197l-224 224v-35h-48v-48h-35l224 -224zM126 469l-59 6l-30 -30l6 -59l20 -20h35v48h48v35zM471 124l-50 50l-83 -83l50 -50
q9 -9 22.5 -9t22.5 9l38 38q9 9 9 22.5t-9 22.5z" />
    <glyph glyph-name="map-marker" unicode="&#xf041;" 
d="M192 0q-80 0 -136 56t-56 136q0 17 1.5 29.5t8 29.5t12 28t22.5 37.5t30 44.5t43.5 62t54.5 79q7 10 20 10t20 -10q24 -35 54.5 -79t43.5 -62t30 -44.5t22.5 -37.5t12 -28t8 -29.5t1.5 -29.5q0 -80 -56 -136t-136 -56zM192 474q-21 -31 -46.5 -67t-37.5 -53.5
t-27.5 -39.5t-21.5 -33t-13 -24t-9 -22.5t-3.5 -19.5t-1.5 -23q0 -66 47 -113t113 -47t113 47t47 113q0 13 -1.5 23t-3.5 19.5t-9 22.5t-13 24t-21.5 33t-27.5 39.5t-37.5 53.5t-46.5 67z" />
    <glyph glyph-name="adjust" unicode="&#xf042;" 
d="M256 40q90 0 153 63.5t63 152.5q0 90 -63.5 153t-152.5 63q-90 0 -153 -63.5t-63 -152.5q0 -90 63.5 -153t152.5 -63zM256 8q-103 0 -175.5 72.5t-72.5 175.5t72.5 175.5t175.5 72.5t175.5 -72.5t72.5 -175.5t-72.5 -175.5t-175.5 -72.5zM224 132v248q-41 -11 -68.5 -45
t-27.5 -79t27.5 -79t68.5 -45zM256 96q-66 0 -113 47t-47 113t47 113t113 47v-320z" />
    <glyph glyph-name="tint" unicode="&#xf043;" 
d="M192 512q-76 0 -129.5 -53.5t-53.5 -129.5q0 -38 16 -73.5t37 -61.5t47 -70t40 -92q6 -21 25 -28.5t37 0.5t24 28q15 49 40.5 93t46.5 70t37 61t16 73q0 76 -53.5 129.5t-129.5 53.5zM41 329q0 63 44 107t107 44t107 -44t44 -107q0 -32 -15.5 -64.5t-36.5 -58
t-46.5 -70.5t-40.5 -95q-2 -9 -11.5 -9t-12.5 9q-15 50 -40.5 95t-46.5 70.5t-36.5 58t-15.5 64.5zM149 324q-1 -4 -5 -4t-5 4q-5 14 -16.5 31t-11.5 28q0 13 9.5 23t23.5 10t23.5 -10t9.5 -23q0 -11 -11.5 -28t-16.5 -31z" />
    <glyph glyph-name="edit" unicode="&#xf044;" 
d="M418 316l20 -20q3 -3 6.5 -1.5t3.5 5.5v164q0 20 -14 34t-34 14h-352q-20 0 -34 -14t-14 -34v-352q0 -20 14 -34t34 -14h292q4 0 5.5 3.5t-1.5 6.5l-20 20q-1 2 -4 2h-272q-7 0 -11.5 4.5t-4.5 11.5v352q0 7 4.5 11.5t11.5 4.5h352q7 0 11.5 -4.5t4.5 -11.5v-144
q0 -3 2 -4zM564 124l-313 313l-100 11q-10 1 -17 -6t-6 -17l11 -100l313 -313q12 -12 29.5 -12t29.5 12l53 53q12 12 12 29.5t-12 29.5zM470 173l-67 -67l-233 234l-9 75l76 -9zM541 88l-53 -53q-7 -7 -14 0l-48 48l67 67l48 -48q7 -7 0 -14z" />
    <glyph glyph-name="arrows" unicode="&#xf047;" 
d="M338 435l-74 73q-8 9 -16 0l-74 -73q-8 -9 0 -17l7 -7q9 -9 17 0l41 41h1v-180h-180v1l41 41q9 8 0 17l-7 7q-8 8 -17 0l-73 -74q-9 -8 0 -16l73 -74q9 -8 17 0l7 7q9 9 0 17l-41 41v1h180v-180h-1l-41 41q-8 9 -17 0l-7 -7q-8 -8 0 -17l74 -73q8 -9 16 0l74 73q8 9 0 17
l-7 7q-9 9 -17 0l-41 -41h-1v180h180v-1l-41 -41q-9 -8 0 -17l7 -7q8 -8 17 0l73 74q9 8 0 16l-73 74q-9 8 -17 0l-7 -7q-9 -9 0 -17l41 -41v-1h-180v180h1l41 -41q8 -9 17 0l7 7q8 8 0 17z" />
    <glyph glyph-name="step-backward" unicode="&#xf048;" 
d="M76 479h8q12 0 12 -12v-190q2 2 4 3l232 192q15 12 33.5 3.5t18.5 -28.5v-384q0 -20 -18.5 -29t-33.5 4l-232 193q-2 1 -4 3v-191q0 -5 -3.5 -8.5t-8.5 -3.5h-8q-5 0 -8.5 3.5t-3.5 8.5v424q0 12 12 12zM116 256l236 -193v0v384v0z" />
    <glyph glyph-name="fast-backward" unicode="&#xf049;" 
d="M12 447h8q12 0 12 -12v-158l3 3l201 160q15 13 33.5 4t18.5 -29v-118l172 143q15 13 33.5 4t18.5 -29v-320q0 -20 -18.5 -29t-33.5 4l-172 144v-119q0 -20 -18.5 -28.5t-33.5 3.5l-201 161l-3 3v-159q0 -5 -3.5 -8.5t-8.5 -3.5h-8q-5 0 -8.5 3.5t-3.5 8.5v360
q0 5 3.5 8.5t8.5 3.5zM292 256h1v-1l187 -160v320l-187 -159h-1zM61 255l195 -160v0v320v0l-195 -159v-1z" />
    <glyph glyph-name="backward" unicode="&#xf04a;" 
d="M268 281l192 159q15 13 33.5 4.5t18.5 -28.5v-320q0 -20 -18.5 -29t-33.5 4l-192 161q-12 10 -12 25t12 24zM288 257l192 -161v320zM12 281l192 159q15 13 33.5 4.5t18.5 -28.5v-320q0 -20 -18.5 -29t-33.5 4l-192 161q-12 10 -12 25t12 24zM32 257l192 -161v320z" />
    <glyph glyph-name="play" unicode="&#xf04b;" 
d="M424 215l-352 -208q-21 -14 -46.5 -1.5t-25.5 42.5v416q0 28 24.5 41.5t47.5 -0.5l352 -208q24 -14 24 -41t-24 -41zM408 270l-352 208q-8 4 -16 -0.5t-8 -13.5v-416q0 -11 9 -14.5t15 0.5l352 208q8 5 8 14t-8 14z" />
    <glyph glyph-name="pause" unicode="&#xf04c;" 
d="M48 479h96q20 0 34 -14t14 -34v-352q0 -20 -14 -34t-34 -14h-96q-20 0 -34 14t-14 34v352q0 20 14 34t34 14zM32 79q0 -7 4.5 -11.5t11.5 -4.5h96q7 0 11.5 4.5t4.5 11.5v352q0 7 -4.5 11.5t-11.5 4.5h-96q-7 0 -11.5 -4.5t-4.5 -11.5v-352zM304 479h96q20 0 34 -14
t14 -34v-352q0 -20 -14 -34t-34 -14h-96q-20 0 -34 14t-14 34v352q0 20 14 34t34 14zM288 79q0 -7 4.5 -11.5t11.5 -4.5h96q7 0 11.5 4.5t4.5 11.5v352q0 7 -4.5 11.5t-11.5 4.5h-96q-7 0 -11.5 -4.5t-4.5 -11.5v-352z" />
    <glyph glyph-name="stop" unicode="&#xf04d;" 
d="M400 32h-352q-20 0 -34 14t-14 34v352q0 20 14 34t34 14h352q20 0 34 -14t14 -34v-352q0 -20 -14 -34t-34 -14zM416 432q0 7 -4.5 11.5t-11.5 4.5h-352q-7 0 -11.5 -4.5t-4.5 -11.5v-352q0 -7 4.5 -11.5t11.5 -4.5h352q7 0 11.5 4.5t4.5 11.5v352z" />
    <glyph glyph-name="forward" unicode="&#xf04e;" 
d="M244 231l-192 -160q-15 -13 -33.5 -4t-18.5 29v320q0 20 18.5 29t33.5 -4l192 -161q12 -10 12 -25t-12 -24zM224 255l-192 161v-320zM500 231l-192 -160q-15 -12 -33.5 -3.5t-18.5 28.5v320q0 20 18.5 29t33.5 -4l192 -161q12 -10 12 -25t-12 -24zM480 255l-192 161v-320
z" />
    <glyph glyph-name="fast-forward" unicode="&#xf050;" 
d="M500 63h-8q-12 0 -12 12v158l-3 -3l-201 -160q-15 -13 -33.5 -4t-18.5 29v118l-172 -143q-15 -13 -33.5 -4t-18.5 29v320q0 20 18.5 29t33.5 -4l172 -144v119q0 20 18.5 29t33.5 -4l201 -161l3 -3v159q0 12 12 12h8q12 0 12 -12v-360q0 -12 -12 -12zM220 254h-1v1
l-187 160v-320l187 159h1zM451 255l-195 160v0v-320v0l195 159v1z" />
    <glyph glyph-name="step-forward" unicode="&#xf051;" 
d="M372 31h-8q-12 0 -12 12v190q-2 -2 -4 -3l-232 -191q-15 -13 -33.5 -4.5t-18.5 28.5v384q0 20 18.5 29t33.5 -4l232 -193q2 -1 4 -3v191q0 12 12 12h8q12 0 12 -12v-424q0 -12 -12 -12zM332 254l-236 193v0v-384v0z" />
    <glyph glyph-name="eject" unicode="&#xf052;" 
d="M435 240l-176 -192q-14 -16 -35 -16t-35 16l-176 192q-21 23 -8.5 51.5t43.5 28.5h352q31 0 43.5 -28.5t-8.5 -51.5zM400 288h-352q-10 0 -14.5 -9.5t2.5 -17.5l176 -192q5 -5 12 -5t12 5l176 192q7 8 2.5 17.5t-14.5 9.5zM448 400v32q0 20 -14 34t-34 14h-352
q-20 0 -34 -14t-14 -34v-32q0 -20 14 -34t34 -14h352q20 0 34 14t14 34zM400 384h-352q-7 0 -11.5 4.5t-4.5 11.5v32q0 7 4.5 11.5t11.5 4.5h352q7 0 11.5 -4.5t4.5 -11.5v-32q0 -7 -4.5 -11.5t-11.5 -4.5z" />
    <glyph glyph-name="chevron-left" unicode="&#xf053;" 
d="M238 476l8 -8q8 -8 0 -17l-196 -195l196 -195q8 -9 0 -17l-8 -8q-8 -8 -16 0l-212 212q-8 8 0 16l212 212q8 8 16 0z" />
    <glyph glyph-name="chevron-right" unicode="&#xf054;" 
d="M18 36l-8 8q-8 8 0 17l196 195l-196 195q-8 9 0 17l8 8q8 8 16 0l212 -212q8 -8 0 -16l-212 -212q-8 -8 -16 0z" />
    <glyph glyph-name="plus-circle" unicode="&#xf055;" 
d="M384 250v12q0 12 -12 12h-98v98q0 12 -12 12h-12q-12 0 -12 -12v-98h-98q-12 0 -12 -12v-12q0 -12 12 -12h98v-98q0 -12 12 -12h12q12 0 12 12v98h98q12 0 12 12zM504 256q0 103 -72.5 175.5t-175.5 72.5t-175.5 -72.5t-72.5 -175.5t72.5 -175.5t175.5 -72.5t175.5 72.5
t72.5 175.5zM472 256q0 -90 -63.5 -153t-152.5 -63q-90 0 -153 63.5t-63 152.5q0 90 63.5 153t152.5 63q90 0 153 -63.5t63 -152.5z" />
    <glyph glyph-name="minus-circle" unicode="&#xf056;" 
d="M140 274q-12 0 -12 -12v-12q0 -12 12 -12h232q12 0 12 12v12q0 12 -12 12h-232zM504 256q0 103 -72.5 175.5t-175.5 72.5t-175.5 -72.5t-72.5 -175.5t72.5 -175.5t175.5 -72.5t175.5 72.5t72.5 175.5zM472 256q0 -90 -63.5 -153t-152.5 -63q-90 0 -153 63.5t-63 152.5
q0 90 63.5 153t152.5 63q90 0 153 -63.5t63 -152.5z" />
    <glyph glyph-name="times-circle" unicode="&#xf057;" 
d="M256 8q-103 0 -175.5 72.5t-72.5 175.5t72.5 175.5t175.5 72.5t175.5 -72.5t72.5 -175.5t-72.5 -175.5t-175.5 -72.5zM256 472q-89 0 -152.5 -63t-63.5 -153q0 -89 63 -152.5t153 -63.5q89 0 152.5 63t63.5 153q0 89 -63 152.5t-153 63.5zM351 187l-69 69l69 69q8 9 0 17
l-9 9q-8 8 -17 0l-69 -69l-69 69q-9 8 -17 0l-9 -9q-8 -8 0 -17l69 -69l-69 -69q-8 -9 0 -17l9 -9q8 -8 17 0l69 69l69 -69q9 -8 17 0l9 9q8 8 0 17z" />
    <glyph glyph-name="check-circle" unicode="&#xf058;" 
d="M256 8q-103 0 -175.5 72.5t-72.5 175.5t72.5 175.5t175.5 72.5t175.5 -72.5t72.5 -175.5t-72.5 -175.5t-175.5 -72.5zM256 472q-89 0 -152.5 -63t-63.5 -153q0 -89 63 -152.5t153 -63.5q89 0 152.5 63t63.5 153q0 89 -63 152.5t-153 63.5zM398 197l-181 179q-8 9 -17 0
l-86 -87q-8 -8 0 -17l9 -8q8 -8 17 0l69 70l163 -163q9 -8 17 1l9 8q8 9 0 17z" />
    <glyph glyph-name="question-circle" unicode="&#xf059;" 
d="M256 340q-12 0 -20 8t-8 20t8 20t20 8t20 -8t8 -20t-8 -20t-20 -8zM264 316h-16q-5 0 -8.5 -3.5t-3.5 -8.5q0 -24 12 -40.5t26.5 -23.5t26.5 -18t12 -26q0 -16 -14.5 -28t-42.5 -12q-37 0 -60 29q-6 9 -16 2l-13 -9q-10 -7 -3 -17q35 -45 92 -45q41 0 69 22t28 58
q0 23 -12 39.5t-26.5 23.5t-26.5 18.5t-12 26.5q0 5 -3.5 8.5t-8.5 3.5zM256 40q89 0 152.5 63t63.5 153q0 89 -63 152.5t-153 63.5q-89 0 -152.5 -63t-63.5 -153q0 -89 63 -152.5t153 -63.5zM256 8q-103 0 -175.5 72.5t-72.5 175.5t72.5 175.5t175.5 72.5t175.5 -72.5
t72.5 -175.5t-72.5 -175.5t-175.5 -72.5z" />
    <glyph glyph-name="info-circle" unicode="&#xf05a;" 
d="M256 40q89 0 152.5 63t63.5 153q0 89 -63 152.5t-153 63.5q-89 0 -152.5 -63t-63.5 -153q0 -89 63 -152.5t153 -63.5zM256 8q-103 0 -175.5 72.5t-72.5 175.5t72.5 175.5t175.5 72.5t175.5 -72.5t72.5 -175.5t-72.5 -175.5t-175.5 -72.5zM220 352h12v-120h-12
q-12 0 -12 -12v-8q0 -12 12 -12h48q12 0 12 12v140h12q12 0 12 12v8q0 12 -12 12h-72q-12 0 -12 -12v-8q0 -12 12 -12zM256 112q-13 0 -22.5 9.5t-9.5 22.5t9.5 22.5t22.5 9.5t22.5 -9.5t9.5 -22.5t-9.5 -22.5t-22.5 -9.5z" />
    <glyph glyph-name="crosshairs" unicode="&#xf05b;" 
d="M506 240h-35q-5 -80 -62 -137t-137 -62v-35q0 -6 -6 -6h-20q-6 0 -6 6v35q-80 5 -137 62t-62 137h-35q-6 0 -6 6v20q0 6 6 6h35q5 80 62 137t137 62v35q0 6 6 6h20q6 0 6 -6v-35q80 -5 137 -62t62 -137h35q6 0 6 -6v-20q0 -6 -6 -6zM272 439v-65q0 -6 -6 -6h-20
q-6 0 -6 6v65q-67 -5 -114.5 -52.5t-52.5 -114.5h65q6 0 6 -6v-20q0 -6 -6 -6h-65q5 -67 52.5 -114.5t114.5 -52.5v65q0 6 6 6h20q6 0 6 -6v-65q67 5 114.5 52.5t52.5 114.5h-65q-6 0 -6 6v20q0 6 6 6h65q-5 67 -52.5 114.5t-114.5 52.5zM280 256q0 10 -7 17t-17 7t-17 -7
t-7 -17t7 -17t17 -7t17 7t7 17z" />
    <glyph glyph-name="ban" unicode="&#xf05e;" 
d="M256 8q-103 0 -175.5 72.5t-72.5 175.5t72.5 175.5t175.5 72.5t175.5 -72.5t72.5 -175.5t-72.5 -175.5t-175.5 -72.5zM103.5 408.5q-60.5 -60.5 -63.5 -145.5t52 -148l305 305q-63 55 -148 52t-145.5 -63.5zM420 397l-305 -305q63 -55 148 -52t145.5 63.5t63.5 145.5
t-52 148z" />
    <glyph glyph-name="arrow-left" unicode="&#xf060;" 
d="M232 476l7 -8q8 -8 0 -17l-179 -178h376q12 0 12 -12v-10q0 -12 -12 -12h-376l179 -178q8 -9 0 -17l-7 -8q-9 -8 -17 0l-211 212q-9 8 0 16l211 212q8 8 17 0z" />
    <glyph glyph-name="arrow-right" unicode="&#xf061;" 
d="M216 36l-7 8q-8 8 0 17l179 178h-376q-5 0 -8.5 3.5t-3.5 8.5v10q0 5 3.5 8.5t8.5 3.5h376l-179 178q-8 9 0 17l7 8q9 8 17 0l211 -212q9 -8 0 -16l-211 -212q-8 -8 -17 0z" />
    <glyph glyph-name="arrow-up" unicode="&#xf062;" 
d="M4 264l8 7q8 8 17 0l178 -179v376q0 5 3.5 8.5t8.5 3.5h10q5 0 8.5 -3.5t3.5 -8.5v-376l178 179q9 8 17 0l8 -7q8 -9 0 -17l-212 -211q-8 -9 -16 0l-212 211q-8 8 0 17z" />
    <glyph glyph-name="arrow-down" unicode="&#xf063;" 
d="M444 248l-8 -7q-8 -8 -17 0l-178 179v-376q0 -5 -3.5 -8.5t-8.5 -3.5h-10q-5 0 -8.5 3.5t-3.5 8.5v376l-179 -179q-3 -3 -8 -3t-8 3l-8 7q-8 9 0 18l211 211q9 8 17 0l211 -211q9 -9 1 -18z" />
    <glyph glyph-name="share" unicode="&#xf064;" 
d="M565 196l-176 -184q-19 -19 -44 -9t-25 37v88q-55 1 -97.5 5.5t-86 18t-72 35t-46.5 58.5t-18 86q0 63 27 106t62 69q18 13 37 0t13 -35q-10 -33 -11 -57.5t7.5 -41t21.5 -26.5t39 -15.5t53.5 -7.5t70.5 -3v88q0 27 25 37t44 -9l176 -184q11 -12 11 -28t-11 -28zM542 230
l-176 184q-4 3 -9 1t-5 -7v-120q-43 0 -70.5 1t-61 5t-53 12t-38.5 22t-25.5 34t-6.5 49.5t11 68.5q-76 -56 -76 -149q0 -33 10 -59.5t25.5 -44.5t41.5 -30.5t51 -19.5t60.5 -11t64 -5t67.5 -1v-120q0 -5 5 -7t9 1l176 184q2 3 2 6t-2 6z" />
    <glyph glyph-name="expand" unicode="&#xf065;" 
d="M0 180v-124q0 -10 7 -17t17 -7h124q12 0 12 12v8q0 12 -12 12h-116v116q0 12 -12 12h-8q-12 0 -12 -12zM300 32h124q10 0 17 7t7 17v124q0 12 -12 12h-8q-12 0 -12 -12v-116h-116q-12 0 -12 -12v-8q0 -12 12 -12zM448 332v124q0 10 -7 17t-17 7h-124q-12 0 -12 -12v-8
q0 -12 12 -12h116v-116q0 -12 12 -12h8q12 0 12 12zM148 480h-124q-10 0 -17 -7t-7 -17v-124q0 -12 12 -12h8q12 0 12 12v116h116q12 0 12 12v8q0 12 -12 12z" />
    <glyph glyph-name="compress" unicode="&#xf066;" 
d="M436 192h-124q-10 0 -17 -7t-7 -17v-124q0 -12 12 -12h8q12 0 12 12v116h116q12 0 12 12v8q0 12 -12 12zM160 168v-124q0 -12 -12 -12h-8q-12 0 -12 12v116h-116q-12 0 -12 12v8q0 12 12 12h124q10 0 17 -7t7 -17zM160 468v-124q0 -10 -7 -17t-17 -7h-124q-12 0 -12 12v8
q0 12 12 12h116v116q0 12 12 12h8q12 0 12 -12zM320 468v-116h116q12 0 12 -12v-8q0 -12 -12 -12h-124q-10 0 -17 7t-7 17v124q0 12 12 12h8q12 0 12 -12z" />
    <glyph glyph-name="plus" unicode="&#xf067;" 
d="M436 238h-194v-194q0 -12 -12 -12h-12q-12 0 -12 12v194h-194q-12 0 -12 12v12q0 12 12 12h194v194q0 12 12 12h12q12 0 12 -12v-194h194q12 0 12 -12v-12q0 -12 -12 -12z" />
    <glyph glyph-name="minus" unicode="&#xf068;" 
d="M436 274q12 0 12 -12v-12q0 -12 -12 -12h-424q-12 0 -12 12v12q0 12 12 12h424z" />
    <glyph glyph-name="asterisk" unicode="&#xf069;" 
d="M475 364l-187 -108l187 -108q11 -6 5 -17l-4 -6q-6 -11 -17 -5l-187 108v-216q0 -5 -3.5 -8.5t-8.5 -3.5h-8q-5 0 -8.5 3.5t-3.5 8.5v216l-187 -108q-11 -6 -17 5l-4 6q-6 11 5 17l187 108l-187 108q-11 6 -5 17l4 6q6 11 17 5l187 -108v216q0 5 3.5 8.5t8.5 3.5h8
q5 0 8.5 -3.5t3.5 -8.5v-216l187 108q11 6 17 -5l4 -6q6 -11 -5 -17z" />
    <glyph glyph-name="exclamation-circle" unicode="&#xf06a;" 
d="M256 40q89 0 152.5 63t63.5 153q0 89 -63 152.5t-153 63.5q-89 0 -152.5 -63t-63.5 -153q0 -89 63 -152.5t153 -63.5zM256 8q-103 0 -175.5 72.5t-72.5 175.5t72.5 175.5t175.5 72.5t175.5 -72.5t72.5 -175.5t-72.5 -175.5t-175.5 -72.5zM245 128h22q6 0 9.5 3.5t2.5 8.5
l-7 168q0 12 -12 12h-8q-12 0 -12 -12l-7 -168q-1 -5 2.5 -8.5t9.5 -3.5zM256 340q-12 0 -20 8t-8 20t8 20t20 8t20 -8t8 -20t-8 -20t-20 -8z" />
    <glyph glyph-name="gift" unicode="&#xf06b;" 
d="M488 160h-72q16 -21 16 -48q0 -33 -23.5 -56.5t-56.5 -23.5q-34 0 -56 21t-39 59q-32 -80 -97 -80q-33 0 -56.5 23.5t-23.5 56.5q0 27 16 48h-72q-10 0 -17 7t-7 17v112q0 10 7 17t17 7h8v112q0 20 14 34t34 14h352q20 0 34 -14t14 -34v-112h8q10 0 17 -7t7 -17v-112
q0 -10 -7 -17t-17 -7zM352 64q20 0 34 14t14 34t-14 34t-34 14h-80q11 -41 26.5 -63.5t27 -27.5t26.5 -5zM112 112q0 -20 14 -34t34 -14q13 0 23 3t28 26t29 67h-80q-20 0 -34 -14t-14 -34zM32 288v-96h160v96h-160zM80 448q-7 0 -11.5 -4.5t-4.5 -11.5v-112h128v128h-112z
M224 448v-256h64v256h-64zM448 432q0 7 -4.5 11.5t-11.5 4.5h-112v-128h128v112zM480 288h-160v-96h160v96z" />
    <glyph glyph-name="leaf" unicode="&#xf06c;" 
d="M501 64q21 0 32 37.5t11 65.5q0 49 -18.5 92t-48.5 73t-67.5 52t-76.5 32.5t-75 10.5q-32 0 -65.5 -8.5t-51.5 -17.5l-17 -9q-6 0 -15 14t-20 28t-21 14q-17 0 -26.5 -11t-9.5 -22q0 -10 9 -20.5t19.5 -17.5t19.5 -15t9 -13q-12 -19 -12 -51q0 -62 44 -108t110 -66
q23 -8 72 -8.5t91.5 -5t59.5 -19.5l8.5 -8.5t8 -7.5t7.5 -5.5t10.5 -4.5t12.5 -1zM501 32q-11 0 -20 2t-17 7t-12 8t-11 10t-9 8v0q-13 12 -98.5 15t-112.5 11q-76 24 -126 78.5t-50 126.5q0 24 7 45q-1 1 -8 6.5t-9 7t-8 7t-8.5 8.5t-7 9t-6.5 10.5t-3.5 11t-1.5 12.5
q0 25 19.5 45t48.5 20q14 0 27 -8.5t19.5 -17t16.5 -23.5q64 28 127 28q40 0 83 -11.5t85 -36t75.5 -58t54 -82t20.5 -104.5q0 -30 -7 -59t-24.5 -52.5t-43.5 -23.5zM159 334q83 -113 227 -102q7 0 12 -4t5.5 -11t-4 -12t-10.5 -5q-163 -12 -256 115q-10 13 3 22q6 4 12.5 3
t10.5 -6z" />
    <glyph glyph-name="fire" unicode="&#xf06d;" 
d="M216 24q0 -18 -17 -23t-27 10q-27 41 -34 80t2.5 68t22.5 52t25 44t12 33q0 17 -11.5 28.5t-28.5 11.5t-28.5 -11.5t-11.5 -28.5v-106q0 -14 -13 -21t-25 1q-38 27 -60 69t-22 89q0 79 56.5 135.5t135.5 56.5t135.5 -56.5t56.5 -135.5q0 -47 -17.5 -85.5t-42 -63.5
t-49 -46.5t-42 -47t-17.5 -53.5zM192 480q-66 0 -113 -47t-47 -113q0 -36 15 -71t41 -57v96q0 30 21 51t51 21t51 -21t21 -51q0 -17 -11 -38.5t-24 -42.5t-23 -46t-8 -56t21 -65q5 33 24.5 61t42.5 48.5t45.5 43t37.5 55t15 72.5q0 66 -47 113t-113 47z" />
    <glyph glyph-name="eye" unicode="&#xf06e;" 
d="M569 232q-43 -73 -117.5 -116.5t-163.5 -43.5t-163.5 43.5t-117.5 116.5q-7 11 -7 24t7 24q43 73 117.5 116.5t163.5 43.5t163.5 -43.5t117.5 -116.5q7 -11 7 -24t-7 -24zM416 228q0 51 -37.5 87.5t-90.5 36.5t-90.5 -36.5t-37.5 -87.5t37.5 -87.5t90.5 -36.5t90.5 36.5
t37.5 87.5zM542 264q-39 67 -107 105.5t-147 38.5t-147 -39t-107 -105q-2 -4 -2 -8t2 -8q46 -78 128 -116q-34 42 -34 96q0 64 47 110t113 46t113 -46t47 -110q0 -54 -34 -96q82 38 128 116q2 4 2 8t-2 8zM224 224q0 -16 8 -30q0 11 7.5 18.5t18.5 7.5t18.5 -7.5t7.5 -18.5
t-7.5 -18.5t-18.5 -7.5q14 -8 30 -8q27 0 45.5 18.5t18.5 45.5t-18.5 45.5t-45.5 18.5t-45.5 -18.5t-18.5 -45.5z" />
    <glyph glyph-name="eye-slash" unicode="&#xf070;" 
d="M321 406l22 29q-27 5 -55 5q-89 0 -163.5 -43.5t-117.5 -116.5q-7 -11 -7 -24t7 -24q39 -67 105 -109l19 26q-61 38 -97 99q-2 4 -2 8t2 8q39 67 107 105.5t147 38.5q17 0 33 -2zM142 164q-14 31 -14 64q0 64 47 110t113 46q8 0 16 -1l-23 -31q-51 -3 -86 -38.5
t-35 -85.5q0 -17 5 -33zM569 280q-52 89 -146 131l57 77q7 10 -2 17l-7 5q-10 7 -17 -3l-358 -483q-7 -10 2 -17l7 -5q10 -7 17 3l62 84q50 -17 104 -17q89 0 163.5 43.5t117.5 116.5q7 11 7 24t-7 24zM416 228q0 -51 -37.5 -87.5t-90.5 -36.5q-42 0 -75 24l35 46
q15 -12 34.5 -14t35.5 8q-11 0 -18.5 7.5t-7.5 18.5t7.5 18.5t18.5 7.5t18.5 -7.5t7.5 -18.5q12 21 6 45t-26 38l38 52q54 -37 54 -101zM542 248q-46 -78 -128 -116q42 52 32.5 118t-65.5 105l23 30q89 -38 138 -121q2 -4 2 -8t-2 -8z" />
    <glyph glyph-name="exclamation-triangle" unicode="&#xf071;" 
d="M570 440q13 24 -0.5 48t-41.5 24h-480q-28 0 -41.5 -24t-0.5 -48l240 -416q14 -24 42 -24t42 24zM542 456l-240 -416q-5 -8 -14 -8t-14 8l-240 416q-4 8 0.5 16t13.5 8h480q9 0 13.5 -8t0.5 -16zM288 372q-12 0 -20 8t-8 20t8 20t20 8t20 -8t8 -20t-8 -20t-20 -8z
M277 160h22q6 0 9.5 3.5t2.5 8.5l-7 168q0 12 -12 12h-8q-12 0 -12 -12l-7 -168q-1 -5 2.5 -8.5t9.5 -3.5zM288 372q-12 0 -20 8t-8 20t8 20t20 8t20 -8t8 -20t-8 -20t-20 -8z" />
    <glyph glyph-name="plane" unicode="&#xf072;" 
d="M462 192h-97l-93 -178v-1q-8 -13 -24 -13h-54q-13 0 -21 10.5t-5 22.5l27 159h-76l-28 -51q-8 -14 -24 -14h-40q-13 0 -21 10t-5 23l19 96l-19 96q-3 13 5 23t21 9h40q16 0 24 -13l28 -51h76l-27 159q-3 12 5 22.5t21 10.5h54q16 0 24 -13l93 -179h97q44 0 79 -16t35 -48
t-35 -48t-79 -16zM462 288h-116l-100 192h-46l34 -192h-134l-36 64h-31l19 -96l-19 -96h31l36 64h134l-34 -192h46l100 192h116q36 0 59 9.5t23 22.5t-23 22.5t-59 9.5z" />
    <glyph glyph-name="calendar-alt" unicode="&#xf073;" 
d="M400 64h-48v-52q0 -12 -12 -12h-8q-12 0 -12 12v52h-192v-52q0 -12 -12 -12h-8q-12 0 -12 12v52h-48q-20 0 -34 14t-14 34v352q0 20 14 34t34 14h352q20 0 34 -14t14 -34v-352q0 -20 -14 -34t-34 -14zM48 96h352q7 0 11.5 4.5t4.5 11.5v48h-384v-48q0 -7 4.5 -11.5
t11.5 -4.5zM400 480h-352q-7 0 -11.5 -4.5t-4.5 -11.5v-272h384v272q0 7 -4.5 11.5t-11.5 4.5zM148 320h-40q-12 0 -12 -12v-40q0 -12 12 -12h40q12 0 12 12v40q0 12 -12 12zM244 320h-40q-12 0 -12 -12v-40q0 -12 12 -12h40q12 0 12 12v40q0 12 -12 12zM340 320h-40
q-12 0 -12 -12v-40q0 -12 12 -12h40q12 0 12 12v40q0 12 -12 12zM244 416h-40q-12 0 -12 -12v-40q0 -12 12 -12h40q12 0 12 12v40q0 12 -12 12zM148 416h-40q-12 0 -12 -12v-40q0 -12 12 -12h40q12 0 12 12v40q0 12 -12 12zM340 416h-40q-12 0 -12 -12v-40q0 -12 12 -12h40
q12 0 12 12v40q0 12 -12 12z" />
    <glyph glyph-name="random" unicode="&#xf074;" 
d="M0 128v-8q0 -12 12 -12h106q5 0 9 4l89 97l-22 23l-85 -92h-97q-12 0 -12 -12zM503 407l-64 64q-15 15 -35 6.5t-20 -29.5v-44h-26q-5 0 -8 -4l-90 -97l22 -23l85 92h17v-52q0 -21 20 -29.5t35 6.5l64 64q9 10 9 23t-9 23zM483 381l-64 -64q-2 -2 -4.5 -1t-2.5 4v128
q0 3 2.5 4t4.5 -1l64 -64q3 -3 0 -6zM503 151l-64 64q-15 15 -35 6.5t-20 -29.5v-52h-17l-240 260q-4 4 -9 4h-106q-5 0 -8.5 -3.5t-3.5 -8.5v-8q0 -5 3.5 -8.5t8.5 -3.5h97l240 -260q4 -4 9 -4h26v-44q0 -21 20 -29.5t35 6.5l64 64q9 10 9 23t-9 23zM483 125l-64 -64
q-2 -2 -4.5 -1t-2.5 4v128q0 3 2.5 4t4.5 -1l64 -64q3 -3 0 -6z" />
    <glyph glyph-name="comment" unicode="&#xf075;" 
d="M288 32q-119 0 -203.5 61t-84.5 147q0 75 66 132q-3 9 -7 16.5t-6 12t-9 10.5t-8.5 7.5t-11.5 8.5t-11 7q-19 15 -11 31.5t29 14.5q89 -7 159 -44q47 12 98 12q119 0 203.5 -61t84.5 -147t-84.5 -147t-203.5 -61zM288 416q-54 0 -102 -15q-77 45 -154 55q35 -23 49.5 -44
t19.5 -52q-69 -51 -69 -120q0 -72 75.5 -124t180.5 -52q106 0 181 52t75 124t-75.5 124t-180.5 52z" />
    <glyph glyph-name="magnet" unicode="&#xf076;" 
d="M372 32q-15 0 -25.5 10.5t-10.5 25.5v172q0 45 -23.5 70.5t-56 25.5t-56.5 -25.5t-24 -70.5v-172q0 -15 -10.5 -25.5t-25.5 -10.5h-104q-15 0 -25.5 10.5t-10.5 25.5q1 46 1 92h-1v32h1q0 45 -1 65q0 72 39.5 130t97.5 87.5t119.5 29.5t119.5 -29.5t97 -87.5t39 -130
v-189q0 -15 -10.5 -25.5t-25.5 -10.5h-104zM36 68h104v92h-103q0 -29 -1 -92zM476 258q0 46 -19 86q-18 37 -51 66q-32 28 -71 43t-78 15t-78 -15q-40 -15 -72 -43q-33 -29 -52 -66q-19 -40 -19 -86q1 -21 1 -66h103v48q0 60 35 97q16 17 38 26q20 9 43 9t44 -9t37 -26
q35 -37 35 -97v-48h103q0 45 1 66zM372 160v-92h104q-1 49 -1 92h-103z" />
    <glyph glyph-name="chevron-up" unicode="&#xf077;" 
d="M4 366l8 8q8 8 17 0l195 -196l195 196q9 8 17 0l8 -8q8 -8 0 -16l-212 -212q-8 -8 -16 0l-212 212q-8 8 0 16z" />
    <glyph glyph-name="chevron-down" unicode="&#xf078;" 
d="M444 163l-8 -7q-8 -9 -17 0l-195 195l-196 -195q-3 -4 -8 -4t-8 4l-8 7q-8 8 0 17l211 211q9 8 17 0l211 -211q9 -9 1 -17z" />
    <glyph glyph-name="retweet" unicode="&#xf079;" 
d="M635 364l-99 98q-8 9 -16 0l-99 -98q-8 -9 0 -17l6 -6q8 -8 17 0l68 68v-281h-252q-5 0 -8 -4l-8 -8q-6 -5 -3 -12.5t11 -7.5h268q10 0 17 7t7 17v289l68 -68q9 -8 17 0l6 6q8 8 0 17zM388 388q-3 -4 -8 -4h-252v-281l68 68q9 8 17 0l6 -6q8 -8 0 -17l-99 -98
q-8 -9 -16 0l-99 98q-8 9 0 17l6 6q8 8 17 0l68 -68v289q0 10 7 17t17 7h268q8 0 11 -7.5t-3 -12.5z" />
    <glyph glyph-name="shopping-cart" unicode="&#xf07a;" 
d="M552 64h-423l-8 -44q-2 -9 -8.5 -14.5t-15.5 -5.5h-85q-5 0 -8.5 3.5t-3.5 8.5v8q0 5 3.5 8.5t8.5 3.5h79l70 373q-17 18 -17 43q0 27 18.5 45.5t45.5 18.5t45.5 -18.5t18.5 -45.5q0 -17 -9 -32h146q-9 15 -9 32q0 27 18.5 45.5t45.5 18.5t45.5 -18.5t18.5 -45.5t-19 -46
q-5 -18 -24 -18h-296l-12 -64h332q8 0 14.5 -5.5t8.5 -13.5l43 -208q3 -11 -4.5 -20t-18.5 -9zM240 448q0 13 -9.5 22.5t-22.5 9.5t-22.5 -9.5t-9.5 -22.5t9.5 -22.5t22.5 -9.5t22.5 9.5t9.5 22.5zM464 480q-13 0 -22.5 -9.5t-9.5 -22.5t9.5 -22.5t22.5 -9.5t22.5 9.5
t9.5 22.5t-9.5 22.5t-22.5 9.5zM502 288h-331l-36 -192h407z" />
    <glyph glyph-name="folder" unicode="&#xf07b;" 
d="M464 128h-192l-64 -64h-160q-20 0 -34 14t-14 34v288q0 20 14 34t34 14h416q20 0 34 -14t14 -34v-224q0 -20 -14 -34t-34 -14zM480 400q0 7 -4.5 11.5t-11.5 4.5h-416q-7 0 -11.5 -4.5t-4.5 -11.5v-288q0 -7 4.5 -11.5t11.5 -4.5h147l64 64h205q7 0 11.5 4.5t4.5 11.5
v224z" />
    <glyph glyph-name="folder-open" unicode="&#xf07c;" 
d="M528 224h-48v-48q0 -20 -14 -34t-34 -14h-160l-64 -64h-160q-20 0 -34 14t-14 34v288q0 20 14 34t34 14h385q45 0 69 -39l67 -112q14 -24 0.5 -48.5t-41.5 -24.5zM48 96h147l64 64h173q7 0 11.5 4.5t4.5 11.5v48h-277q-45 0 -68 39l-71 117v-268q0 -7 4.5 -11.5
t11.5 -4.5zM542 280l-68 113q-6 9 -18 16t-23 7h-388l82 -137q6 -9 18 -16t23 -7h360q9 0 13.5 8t0.5 16z" />
    <glyph glyph-name="arrows-v" unicode="&#xf07d;" 
d="M181 400q-8 -9 -17 0l-51 52v-392l51 52q9 9 17 0l7 -7q9 -9 0 -17l-84 -84q-8 -9 -16 0l-84 84q-9 8 0 17l7 7q8 9 17 0l51 -52v392l-51 -52q-9 -9 -17 0l-7 7q-9 9 0 17l84 84q8 9 16 0l84 -84q9 -8 0 -17z" />
    <glyph glyph-name="arrows-h" unicode="&#xf07e;" 
d="M400 171q-9 8 0 17l52 51h-392l52 -51q9 -9 0 -17l-7 -7q-9 -9 -17 0l-84 84q-9 8 0 16l84 84q8 9 17 0l7 -7q9 -8 0 -17l-52 -51h392l-52 51q-9 9 0 17l7 7q9 9 17 0l84 -84q9 -8 0 -16l-84 -84q-8 -9 -17 0z" />
    <glyph glyph-name="chart-bar" unicode="&#xf080;" 
d="M500 416q12 0 12 12v8q0 12 -12 12h-488q-12 0 -12 -12v-360q0 -12 12 -12h8q12 0 12 12v340h468zM160 346v-84q0 -6 -6 -6h-20q-6 0 -6 6v84q0 6 6 6h20q6 0 6 -6zM448 346v-244q0 -6 -6 -6h-20q-6 0 -6 6v244q0 6 6 6h20q6 0 6 -6zM352 346v-148q0 -6 -6 -6h-20
q-6 0 -6 6v148q0 6 6 6h20q6 0 6 -6zM256 346v-212q0 -6 -6 -6h-20q-6 0 -6 6v212q0 6 6 6h20q6 0 6 -6z" />
    <glyph glyph-name="camera-retro" unicode="&#xf083;" 
d="M32 58v-20q0 -6 6 -6h116q6 0 6 6v20q0 6 -6 6h-116q-6 0 -6 -6zM376 288q0 -50 -35 -85t-85 -35t-85 35t-35 85t35 85t85 35t85 -35t35 -85zM344 288q0 36 -26 62t-62 26t-62 -26t-26 -62t26 -62t62 -26t62 26t26 62zM224 288q0 -13 9.5 -22.5t22.5 -9.5q7 0 11.5 -4.5
t4.5 -11.5t-4.5 -11.5t-11.5 -4.5q-26 0 -45 19t-19 45q0 7 4.5 11.5t11.5 4.5t11.5 -4.5t4.5 -11.5zM512 80v352q0 20 -14 34t-34 14h-416q-20 0 -34 -14t-14 -34v-288q0 -20 14 -34t34 -14h136l34 -45q14 -19 38 -19h208q20 0 34 14t14 34zM224 96h240q8 0 16 3v-19
q0 -7 -4.5 -11.5t-11.5 -4.5h-208q-8 0 -13 6zM480 144q0 -7 -4.5 -11.5t-11.5 -4.5h-416q-7 0 -11.5 4.5t-4.5 11.5v288q0 7 4.5 11.5t11.5 4.5h416q7 0 11.5 -4.5t4.5 -11.5v-288z" />
    <glyph glyph-name="key" unicode="&#xf084;" 
d="M336 32q60 0 102 42t42 102t-42 102t-102 42q-28 0 -54 -10l-42 42h-48v64h-64v64h-96v-80l170 -170q-10 -26 -10 -54q0 -60 42 -102t102 -42zM336 0q-73 0 -124.5 51.5t-51.5 124.5q0 23 6 45l-159 159q-7 7 -7 17v91q0 10 7 17t17 7h112q10 0 17 -7t7 -17v-40h40
q10 0 17 -7t7 -17v-40h19q10 0 17 -7l31 -31q22 6 45 6q73 0 124.5 -51.5t51.5 -124.5t-51.5 -124.5t-124.5 -51.5zM384 108q8 0 14 6t6 14t-6 14t-14 6t-14 -6t-6 -14t6 -14t14 -6zM384 80q-20 0 -34 14t-14 34t14 34t34 14t34 -14t14 -34t-14 -34t-34 -14z" />
    <glyph glyph-name="cogs" unicode="&#xf085;" 
d="M539 196l-3 -4q-6 1 -12 0l-3 4q-9 16 -27 11q-20 -7 -34 -19q-16 -12 -6 -30l3 -4q-4 -5 -6 -11h-10q-8 0 -14.5 -5.5t-8.5 -13.5q-4 -20 0 -39q2 -8 8.5 -13.5t15.5 -5.5h9q2 -6 6 -11l-3 -5q-10 -17 5 -30q15 -12 34 -19q18 -6 28 11l3 4h12l3 -4q10 -17 28 -11
q19 6 34 19t5 31l-3 4q4 5 6 11h5q9 0 15.5 5.5t8.5 13.5q4 19 0 39q-2 8 -8.5 13.5t-15.5 5.5h-5q-2 6 -6 11l3 4q10 18 -6 31q-14 11 -34 18q-18 5 -27 -11zM551 162l10 18q10 -4 19 -11l-10 -18l6 -7q7 -9 11 -20l3 -9h21q2 -11 0 -21h-21l-3 -10q-4 -10 -11 -19l-6 -7
l10 -19q-8 -6 -19 -10l-10 18l-10 -2q-11 -2 -22 0l-10 2l-10 -18q-10 4 -19 10l11 19l-7 7q-7 9 -11 19l-3 10h-21q-2 10 0 21h21l3 9q4 11 11 19l7 8l-11 18q8 7 19 11l10 -18l10 2q11 2 22 0zM145 454v-31q-19 -8 -36 -21l-28 16q-16 9 -29 -5q-35 -38 -51 -88
q-6 -18 11 -28l27 -16q-2 -21 0 -42l-27 -16q-17 -10 -11 -28q16 -50 51 -88q13 -14 29 -5l28 16q16 -12 36 -21v-31q0 -20 19 -24q50 -11 102 0q8 2 13.5 8.5t5.5 15.5v31q19 8 36 21l27 -16q17 -9 30 5q37 40 52 88q6 18 -10 28l-25 16q3 21 0 42l28 18q15 9 11 25
q-8 38 -56 89q-13 14 -30 5l-27 -16q-17 12 -36 21v31q0 9 -5.5 15.5t-13.5 8.5q-51 11 -102 0q-8 -2 -13.5 -8.5t-5.5 -15.5zM177 448q19 4 38 4t38 -4v-48l10 -3q26 -9 46 -27l9 -7l41 24q33 -37 42 -65l-41 -24l2 -12q5 -26 0 -53l-2 -11l41 -24q-9 -28 -42 -65l-41 24
l-9 -7q-20 -18 -46 -27l-10 -4v-47q-19 -4 -38 -4t-38 4v47l-10 4q-26 9 -46 27l-9 7l-41 -24q-26 29 -38 65l41 24l-2 11q-5 27 0 54l2 11l-41 24q12 36 38 65l41 -24l9 7q20 18 46 27l10 4v47zM215.5 343q-34.5 0 -58.5 -24.5t-24 -58.5t24 -58.5t58.5 -24.5t59 24.5
t24.5 58.5t-24.5 58.5t-59 24.5zM216 209q-21 0 -36 15t-15 36t15 36t36 15t36 -15t15 -36t-15 -36t-36 -15zM539 501l-3 -4h-12l-3 4q-9 16 -27 10q-20 -6 -34 -18q-16 -13 -6 -31l3 -4q-4 -5 -6 -10h-10q-8 0 -14.5 -5.5t-8.5 -14.5q-4 -19 0 -38q2 -9 8.5 -14.5
t15.5 -5.5h9q2 -6 6 -11l-3 -4q-10 -17 5 -30t34 -19q18 -7 28 10l3 5q6 -1 12 0l3 -5q10 -17 28 -10q19 6 34 19t5 30l-3 4q4 5 6 11h5q9 0 15.5 5.5t8.5 14.5q4 19 0 38q-2 9 -8.5 14.5t-15.5 5.5h-5q-2 5 -6 10l3 5q10 17 -6 30q-14 12 -34 18q-18 5 -27 -10zM551 466
l10 18q10 -4 19 -10l-10 -19l6 -7q7 -9 11 -19l3 -9h21q2 -11 0 -22h-21l-3 -9q-4 -11 -11 -19l-6 -8l10 -18q-8 -7 -19 -11l-10 18l-10 -1q-11 -3 -22 0l-10 1l-10 -18q-10 4 -19 11l11 18l-7 8q-7 9 -11 19l-3 9h-21q-2 11 0 22h21l3 9q4 10 11 19l7 7l-11 19q8 6 19 11
l10 -19l10 2q11 2 22 0zM560 408q0 -13 -9.5 -22.5t-22.5 -9.5t-22.5 9.5t-9.5 22.5t9.5 22.5t22.5 9.5t22.5 -9.5t9.5 -22.5zM560 103.5q0 -13.5 -9.5 -22.5t-22.5 -9t-22.5 9t-9.5 22.5t9.5 23t22.5 9.5t22.5 -9.5t9.5 -23z" />
    <glyph glyph-name="comments" unicode="&#xf086;" 
d="M575 456q-3 11 -11.5 17.5t-19.5 6.5q-60 0 -120 -36q-85 23 -166 -7q46 -2 89 -16q43 1 82 -12q59 39 115 39q-26 -14 -37 -30.5t-15 -43.5q52 -42 52 -99q0 -31 -16 -59q1 -30 -8 -60q56 51 56 119q0 62 -49 111q6 20 33 34q21 12 15 36zM240 64q-85 0 -146.5 43
t-61.5 104q0 57 56 99q-4 27 -16 43.5t-40 30.5q60 0 125 -39q40 12 83 12q86 0 147 -43t61 -103t-61 -103.5t-147 -43.5zM240 32q99 0 169.5 52t70.5 126.5t-70.5 126.5t-169.5 52q-41 0 -79 -9q-64 36 -129 36q-11 0 -20 -7t-11.5 -17.5t2.5 -20.5t14 -15q29 -15 35 -34
q-52 -48 -52 -111q0 -75 70.5 -127t169.5 -52z" />
    <glyph glyph-name="star-half" unicode="&#xf089;" 
d="M288 403l-146 77l28 -162l-117 -115l162 -24l73 -147v-32q-20 0 -29 18l-65 132l-146 21q-20 3 -26 22t8 33l106 103l-25 145q-3 20 13 31.5t33 2.5l131 -68v-37z" />
    <glyph glyph-name="sign-out" unicode="&#xf08b;" 
d="M48 64h132q12 0 12 12v8q0 12 -12 12h-132q-7 0 -11.5 4.5t-4.5 11.5v288q0 7 4.5 11.5t11.5 4.5h132q12 0 12 12v8q0 12 -12 12h-132q-20 0 -34 -14t-14 -34v-288q0 -20 14 -34t34 -14zM327 84l-7 7q-9 8 0 17l132 131h-280q-12 0 -12 12v10q0 12 12 12h280l-132 131
q-8 9 0 17l7 7q9 9 17 0l165 -164q8 -8 0 -16l-165 -164q-8 -9 -17 0z" />
    <glyph glyph-name="thumbtack" unicode="&#xf08d;" 
d="M301 204l-10 -76h37q10 0 17 -7t7 -17v-80q0 -10 -7 -17t-17 -7h-272q-10 0 -17 7t-7 17v80q0 10 7 17t17 7h37l-10 76q-38 21 -60.5 55.5t-22.5 75.5q0 7 4.5 11.5t11.5 4.5h160v121v2l8 32q2 6 8 6t8 -6l8 -32v-2v-121h160q7 0 11.5 -4.5t4.5 -11.5q0 -41 -22.5 -75.5
t-60.5 -55.5zM33 319q5 -31 26.5 -55.5t53.5 -38.5l15 -129h-64v-64h256v64h-64l15 129q32 14 53.5 38.5t26.5 55.5h-318z" />
    <glyph glyph-name="external-link" unicode="&#xf08e;" 
d="M196 375q-9 -9 0 -17l323 -323l-1 -1h-90q-5 0 -8.5 -3.5t-3.5 -8.5v-10q0 -5 3.5 -8.5t8.5 -3.5h136q5 0 8.5 3.5t3.5 8.5v136q0 5 -3.5 8.5t-8.5 3.5h-10q-5 0 -8.5 -3.5t-3.5 -8.5v-90l-1 -1l-323 323q-8 9 -17 0zM428 219l-8 8q-4 4 -4 9v228q0 7 -4.5 11.5
t-11.5 4.5h-352q-7 0 -11.5 -4.5t-4.5 -11.5v-352q0 -7 4.5 -11.5t11.5 -4.5h340q5 0 8 -4l8 -8q6 -5 3 -12.5t-11 -7.5h-348q-20 0 -34 14t-14 34v352q0 20 14 34t34 14h352q20 0 34 -14t14 -34v-236q0 -8 -7.5 -11t-12.5 2z" />
    <glyph glyph-name="sign-in" unicode="&#xf090;" 
d="M184 84l164 164q9 8 0 16l-164 164q-8 9 -17 0l-7 -7q-9 -8 0 -17l132 -131h-280q-5 0 -8.5 -3.5t-3.5 -8.5v-10q0 -5 3.5 -8.5t8.5 -3.5h280l-132 -131q-8 -9 0 -17l7 -7q8 -9 17 0zM512 400v-288q0 -20 -14 -34t-34 -14h-132q-12 0 -12 12v8q0 12 12 12h132
q7 0 11.5 4.5t4.5 11.5v288q0 7 -4.5 11.5t-11.5 4.5h-132q-12 0 -12 12v8q0 12 12 12h132q20 0 34 -14t14 -34z" />
    <glyph glyph-name="trophy" unicode="&#xf091;" 
d="M448 64v-52q0 -12 -12 -12h-296q-12 0 -12 12v52h-116q-12 0 -12 12v62q0 48 46.5 93t114.5 55q20 43 50 67t61 30v97h-86q-11 0 -18.5 7.5t-7.5 18.5q0 6 6 6h244q6 0 6 -6q0 -11 -7.5 -18.5t-18.5 -7.5h-86v-97q31 -6 61 -30t50 -67q68 -10 114.5 -55t46.5 -93v-62
q0 -5 -3.5 -8.5t-8.5 -3.5h-116zM32 138v-42h96v24q0 73 18 130q-49 -13 -81.5 -46.5t-32.5 -65.5zM288 352q-54 0 -91 -68t-37 -164v-88h256v88q0 96 -37 164t-91 68zM544 138q0 32 -32.5 65.5t-81.5 46.5q18 -57 18 -130v-24h96v42z" />
    <glyph glyph-name="upload" unicode="&#xf093;" 
d="M452 432q0 8 -6 14t-14 6t-14 -6t-6 -14t6 -14t14 -6t14 6t6 14zM368 412q-8 0 -14 6t-6 14t6 14t14 6t14 -6t6 -14t-6 -14t-14 -6zM512 364v104q0 18 -13 31t-31 13h-424q-18 0 -31 -13t-13 -31v-104q0 -18 13 -31t31 -13h124v-99h-53q-26 0 -36.5 -25t8.5 -44l141 -140
q11 -12 28 -12t28 12l141 140q19 19 8.5 44t-36.5 25h-53v99h124q18 0 31 13t13 31zM200 189v187q0 8 8 8h96q8 0 8 -8v-187h85q5 0 7 -5t-2 -9l-140 -141q-6 -5 -12 0l-140 141q-4 4 -2 9t7 5h85zM480 364q0 -12 -12 -12h-124v24q0 17 -11.5 28.5t-28.5 11.5h-96
q-17 0 -28.5 -11.5t-11.5 -28.5v-24h-124q-12 0 -12 12v104q0 12 12 12h424q12 0 12 -12v-104z" />
    <glyph glyph-name="lemon" unicode="&#xf094;" 
d="M489 23q-23 -23 -51 -23q-14 0 -24 6q-13 8 -34.5 9t-44 -2.5t-52 -2.5t-58.5 6t-64 24.5t-68 52.5t-52.5 68t-24.5 64t-6 58.5t2.5 52t2.5 44t-9 34.5q-9 15 -4.5 36.5t21.5 38.5t38.5 21.5t36.5 -4.5q13 -8 34.5 -9t44 2.5t52 2.5t58.5 -6t64 -24.5t68 -52.5t52.5 -68
t24.5 -64t6 -58.5t-2.5 -52t-2.5 -44t9 -34.5q9 -15 4.5 -36.5t-21.5 -38.5zM478 82q-12 20 -12.5 48.5t2.5 58t1.5 62t-19 71t-54 75t-75 54t-71 19t-62 -1.5t-58 -2.5t-48.5 12.5q-15 9 -36 -12t-12 -36q12 -20 12.5 -48.5t-2.5 -58t-1.5 -62t19 -71t54 -75t75 -54t71 -19
t62 1.5t58 2.5t48.5 -12.5q15 -9 36 11.5t12 36.5zM259 112q-49 11 -92.5 54.5t-54.5 92.5q-3 13 -16 13h-3q-7 -2 -10.5 -7.5t-2.5 -11.5q13 -59 63.5 -109.5t109.5 -63.5q6 -1 11.5 2.5t7 10t-2 12t-10.5 7.5z" />
    <glyph glyph-name="phone" unicode="&#xf095;" 
d="M488 24l-101 -23q-11 -3 -21 2.5t-15 15.5l-46 108q-9 22 9 37l54 44q-53 107 -160 160l-44 -54q-15 -18 -37 -9l-108 46q-10 5 -15.5 15t-2.5 21l23 101q3 10 11.5 17t19.5 7q92 0 177 -36t146 -97.5t97.5 -146t36.5 -178.5q0 -10 -7 -18.5t-17 -11.5zM55 480l-23 -100
l108 -46l59 73q78 -36 125 -83t83 -125l-73 -59l46 -108l100 23q0 115 -57 213t-155 155t-213 57z" />
    <glyph glyph-name="phone-square" unicode="&#xf098;" 
d="M400 32h-352q-20 0 -34 14t-14 34v352q0 20 14 34t34 14h352q20 0 34 -14t14 -34v-352q0 -20 -14 -34t-34 -14zM416 432q0 7 -4.5 11.5t-11.5 4.5h-352q-7 0 -11.5 -4.5t-4.5 -11.5v-352q0 -7 4.5 -11.5t11.5 -4.5h352q7 0 11.5 4.5t4.5 11.5v352zM361 110l-58 -13
q-4 -1 -7 -1q-8 0 -16 5t-11 13l-27 63q-9 20 8 34l24 20q-11 20 -33 42t-42 33l-20 -24q-14 -17 -34 -8l-63 27q-10 4 -15 13.5t-2 20.5l13 58q3 10 11 16.5t18 6.5q115 0 196 -81t81 -196q0 -10 -6.5 -18t-16.5 -11zM109 384l-13 -55l60 -25l34 42q47 -22 74.5 -49
t49.5 -75l-42 -34l25 -60l55 13q-1 100 -72 171t-171 72z" />
    <glyph glyph-name="unlock" unicode="&#xf09c;" 
d="M336 256h-240v-96q0 -58 23 -93t73 -35t73 35t23 93v20q0 12 12 12h8q12 0 12 -12v-18q0 -71 -32 -116.5t-95.5 -45.5t-96 44.5t-32.5 115.5v96h-16q-20 0 -34 14t-14 34v160q0 20 14 34t34 14h288q20 0 34 -14t14 -34v-160q0 -20 -14 -34t-34 -14zM352 464
q0 7 -4.5 11.5t-11.5 4.5h-288q-7 0 -11.5 -4.5t-4.5 -11.5v-160q0 -7 4.5 -11.5t11.5 -4.5h288q7 0 11.5 4.5t4.5 11.5v160z" />
    <glyph glyph-name="credit-card" unicode="&#xf09d;" 
d="M528 32h-480q-20 0 -34 14t-14 34v352q0 20 14 34t34 14h480q20 0 34 -14t14 -34v-352q0 -20 -14 -34t-34 -14zM48 64h480q7 0 11.5 4.5t4.5 11.5v48h-512v-48q0 -7 4.5 -11.5t11.5 -4.5zM528 448h-480q-7 0 -11.5 -4.5t-4.5 -11.5v-208h512v208q0 7 -4.5 11.5t-11.5 4.5
zM192 364v8q0 12 -12 12h-72q-12 0 -12 -12v-8q0 -12 12 -12h72q12 0 12 12zM384 364v8q0 12 -12 12h-136q-12 0 -12 -12v-8q0 -12 12 -12h136q12 0 12 12z" />
    <glyph glyph-name="rss" unicode="&#xf09e;" 
d="M80 352q20 0 34 14t14 34t-14 34t-34 14t-34 -14t-14 -34t14 -34t34 -14zM80 320q-33 0 -56.5 23.5t-23.5 56.5t23.5 56.5t56.5 23.5t56.5 -23.5t23.5 -56.5t-23.5 -56.5t-56.5 -23.5zM448 468q-3 -117 -62 -216.5t-158 -158t-216 -61.5q-5 0 -8.5 3.5t-3.5 8.5v8
q0 5 3.5 8.5t8.5 3.5q108 3 200 57.5t146.5 146.5t57.5 200q0 5 3.5 8.5t8.5 3.5h8q5 0 8.5 -3.5t3.5 -8.5zM304 468q-5 -119 -89 -203t-203 -89q-5 0 -8.5 3.5t-3.5 8.5v8q0 12 12 12q105 5 180 80t80 180q0 12 12 12h8q5 0 8.5 -3.5t3.5 -8.5z" />
    <glyph glyph-name="hdd" unicode="&#xf0a0;" 
d="M567 227l-105 -143q-6 -8 -17 -14t-21 -6h-272q-10 0 -21 6t-17 14l-105 143q-9 13 -9 29v144q0 20 14 34t34 14h480q20 0 34 -14t14 -34v-144q0 -16 -9 -29zM140 103q4 -7 12 -7h272q8 0 12 7l89 121h-474zM544 272v128q0 7 -4.5 11.5t-11.5 4.5h-480q-7 0 -11.5 -4.5
t-4.5 -11.5v-128q0 -7 4.5 -11.5t11.5 -4.5h480q7 0 11.5 4.5t4.5 11.5zM488 336q0 10 -7 17t-17 7t-17 -7t-7 -17t7 -17t17 -7t17 7t7 17zM424 336q0 10 -7 17t-17 7t-17 -7t-7 -17t7 -17t17 -7t17 7t7 17z" />
    <glyph glyph-name="bullhorn" unicode="&#xf0a1;" 
d="M544 192v-160q0 -13 -9.5 -22.5t-22.5 -9.5q-149 128 -304 128h-160q-20 0 -34 14t-14 34v96q0 20 14 34t34 14h17q-3 10 -1 28.5t2.5 27t5.5 25.5t7 24.5t7.5 23.5t7.5 23t8 13q27 27 65 27q24 0 44.5 -12.5t30.5 -35.5q6 -11 2.5 -22.5t-13.5 -18.5q-21 -13 -26 -18.5
t-1 -12.5q11 -20 -4 -38q-5 -4 -1.5 -16.5t12.5 -17.5q154 1 301 128q13 0 22.5 -9.5t9.5 -22.5v-160q13 0 22.5 -9.5t9.5 -22.5t-9.5 -22.5t-22.5 -9.5zM214 450q-13 27 -42 29.5t-48 -17.5q-2 -7 -7 -22t-7 -22.5t-6.5 -23t-5 -24t-2.5 -25t1 -25.5h74q-15 34 5 56
q-13 23 -1.5 40t39.5 34zM32 272v-96q0 -7 4.5 -11.5t11.5 -4.5h176v128h-176q-7 0 -11.5 -4.5t-4.5 -11.5zM512 406q-56 -44 -114 -72q-71 -34 -142 -43v-134q71 -9 142 -43q59 -29 114 -72v364z" />
    <glyph glyph-name="certificate" unicode="&#xf0a3;" 
d="M496 272l-17 -16l17 -16q22 -22 14 -52t-38 -38l-23 -6l7 -22q8 -30 -14 -52t-52 -14l-22 7l-6 -23q-8 -30 -38 -38t-52 14l-16 17l-16 -17q-22 -22 -52 -14t-38 38l-6 23l-22 -7q-30 -8 -52 14t-14 52l7 22l-23 6q-30 8 -38 38t14 52l17 16l-17 16q-22 22 -14 52t38 38
l23 5l-7 23q-8 30 14 52t52 14l22 -7l6 23q8 30 38 38t52 -14l16 -17l16 17q21 22 51.5 14t38.5 -38l6 -23l22 7q30 8 52 -14t14 -52l-7 -23l23 -5q30 -8 38 -38t-14 -52zM464 331l-55 14l16 54q3 12 -5.5 20.5t-20.5 5.5l-54 -16l-14 55q-3 12 -15 15t-21 -5l-39 -41
l-39 41q-9 8 -21 5t-15 -15l-14 -55l-54 16q-12 3 -20.5 -5.5t-5.5 -20.5l16 -54l-55 -14q-12 -3 -15 -15t5 -21l41 -39l-41 -39q-8 -9 -5 -21t15 -15l55 -14l-16 -54q-3 -12 5.5 -20.5t20.5 -5.5l54 15l14 -54q3 -12 15 -15t21 5l39 41l39 -41q9 -8 21 -5t15 15l14 54
l54 -15q12 -3 20.5 5.5t5.5 20.5l-16 54l55 14q12 3 15 15t-5 21l-41 39l41 39q8 9 5 21t-15 15z" />
    <glyph glyph-name="hand-point-right" unicode="&#xf0a4;" 
d="M442 147h-122q10 -22 10 -45q0 -30 -21.5 -50t-52.5 -20q-17 0 -30 9.5t-19 20t-13 26t-10 20.5q-10 16 -29 38.5t-32 28.5q-9 -15 -27 -15h-64q-13 0 -22.5 9.5t-9.5 22.5v224q0 13 9.5 22.5t22.5 9.5h64q14 0 23 -10q9 2 51.5 22t73.5 20h24q43 0 66 -23.5t22 -62.5
q24 -29 17 -65q11 -19 12 -40v-1h57q28 0 49 -21t21 -49q0 -29 -21 -50t-49 -21zM32 192h64v224h-64v-224zM442 256h-100q12 11 11 31.5t-16 35.5q8 16 3 33.5t-17 24.5q11 67 -55 67h-24q-25 0 -63.5 -19t-52.5 -22v-199q20 -7 44.5 -33.5t38.5 -49.5q5 -8 12.5 -26
t14.5 -26.5t18 -8.5q18 0 30 11t12 27q0 22 -14.5 46t-14.5 31h173q15 0 26.5 11.5t11.5 27.5q0 15 -11.5 26.5t-26.5 11.5zM84 384q0 8 -6 14t-14 6t-14 -6t-6 -14t6 -14t14 -6t14 6t6 14z" />
    <glyph glyph-name="hand-point-left" unicode="&#xf0a5;" 
d="M0 218q0 28 21 49t49 21h57v1q1 21 12 40q-7 36 17 65q-1 39 22 62.5t66 23.5h24q31 0 73.5 -20t51.5 -22q9 10 23 10h64q13 0 22.5 -9.5t9.5 -22.5v-224q0 -13 -9.5 -22.5t-22.5 -9.5h-64q-18 0 -27 15q-13 -6 -32 -28.5t-29 -38.5q-3 -5 -10 -20.5t-13 -26t-19 -20
t-30 -9.5q-31 0 -52.5 20t-21.5 50q0 23 10 45h-122q-28 0 -49 21t-21 50zM480 416h-64v-224h64v224zM32 218q0 -16 11.5 -27.5t26.5 -11.5h173q0 -7 -14.5 -31t-14.5 -46q0 -16 12 -27t30 -11q11 0 18 8.5t14.5 26.5t11.5 26q15 23 39.5 49.5t44.5 33.5v199q-14 3 -52.5 22
t-63.5 19h-24q-66 0 -55 -67q-12 -7 -17 -24.5t3 -33.5q-15 -15 -16 -35.5t11 -31.5h-100q-15 0 -26.5 -11.5t-11.5 -26.5zM448 364q8 0 14 6t6 14t-6 14t-14 6t-14 -6t-6 -14t6 -14t14 -6z" />
    <glyph glyph-name="hand-point-up" unicode="&#xf0a6;" 
d="M115 70v122q-22 -10 -45 -10q-30 0 -50 21.5t-20 52.5q0 17 9.5 30t20 19t26 13t20.5 10q16 10 38.5 29t28.5 32q-15 9 -15 27v64q0 13 9.5 22.5t22.5 9.5h224q13 0 22.5 -9.5t9.5 -22.5v-64q0 -14 -10 -23q2 -9 22 -51.5t20 -73.5v-24q0 -43 -23.5 -66t-62.5 -22
q-29 -24 -65 -17q-19 -11 -40 -12h-1v-57q0 -28 -21 -49t-49 -21q-29 0 -50 21t-21 49zM160 480v-64h224v64h-224zM224 70v100q11 -12 31.5 -11t35.5 16q16 -8 33.5 -3t24.5 17q67 -11 67 55v24q0 25 -19 63.5t-22 52.5h-199q-7 -20 -33.5 -44.5t-49.5 -38.5
q-8 -5 -26 -12.5t-26.5 -14.5t-8.5 -18q0 -18 11 -30t27 -12q22 0 46 14.5t31 14.5v-173q0 -15 11.5 -26.5t27.5 -11.5q15 0 26.5 11.5t11.5 26.5zM352 428q8 0 14 6t6 14t-6 14t-14 6t-14 -6t-6 -14t6 -14t14 -6z" />
    <glyph glyph-name="hand-point-down" unicode="&#xf0a7;" 
d="M186 512q28 0 49 -21t21 -49v-57h1q21 -1 40 -12q36 7 65 -17q39 1 62.5 -22t23.5 -66v-24q0 -31 -20 -73.5t-22 -51.5q10 -9 10 -23v-64q0 -13 -9.5 -22.5t-22.5 -9.5h-224q-13 0 -22.5 9.5t-9.5 22.5v64q0 18 15 27q-6 13 -28.5 32t-38.5 29q-5 3 -20.5 10t-26 13
t-20 19t-9.5 30q0 31 20 52.5t50 21.5q23 0 45 -10v122q0 28 21 49t50 21zM384 32v64h-224v-64h224zM186 480q-16 0 -27.5 -11.5t-11.5 -26.5v-173q-7 0 -31 14.5t-46 14.5q-16 0 -27 -12t-11 -30q0 -11 8.5 -18t26.5 -14.5t26 -11.5q23 -15 49.5 -39.5t33.5 -44.5h199
q3 14 22 52.5t19 63.5v24q0 66 -67 55q-7 12 -24.5 17t-33.5 -3q-15 15 -35.5 16t-31.5 -11v100q0 15 -11.5 26.5t-26.5 11.5zM332 64q0 -8 6 -14t14 -6t14 6t6 14t-6 14t-14 6t-14 -6t-6 -14z" />
    <glyph glyph-name="arrow-circle-left" unicode="&#xf0a8;" 
d="M504 256q0 -103 -72.5 -175.5t-175.5 -72.5t-175.5 72.5t-72.5 175.5t72.5 175.5t175.5 72.5t175.5 -72.5t72.5 -175.5zM256 472q-89 0 -152.5 -63t-63.5 -153q0 -89 63 -152.5t153 -63.5q89 0 152.5 63t63.5 153q0 89 -63 152.5t-153 63.5zM244 380l-116 -116
q-8 -8 0 -16l116 -116q8 -8 16 0l7 7q9 9 0 17l-85 83h190q5 0 8.5 3.5t3.5 8.5v10q0 5 -3.5 8.5t-8.5 3.5h-190l85 83q9 8 0 17l-6 7q-9 8 -17 0z" />
    <glyph glyph-name="arrow-circle-right" unicode="&#xf0a9;" 
d="M8 256q0 103 72.5 175.5t175.5 72.5t175.5 -72.5t72.5 -175.5t-72.5 -175.5t-175.5 -72.5t-175.5 72.5t-72.5 175.5zM256 40q89 0 152.5 63t63.5 153q0 89 -63 152.5t-153 63.5q-89 0 -152.5 -63t-63.5 -153q0 -89 63 -152.5t153 -63.5zM268 132l116 116q8 8 0 16
l-116 116q-8 8 -16 0l-7 -7q-9 -9 0 -17l85 -83h-190q-12 0 -12 -12v-10q0 -12 12 -12h190l-85 -83q-9 -8 -1 -17l7 -7q9 -8 17 0z" />
    <glyph glyph-name="arrow-circle-up" unicode="&#xf0aa;" 
d="M256 504q103 0 175.5 -72.5t72.5 -175.5t-72.5 -175.5t-175.5 -72.5t-175.5 72.5t-72.5 175.5t72.5 175.5t175.5 72.5zM40 256q0 -89 63 -152.5t153 -63.5q89 0 152.5 63t63.5 153q0 89 -63 152.5t-153 63.5q-89 0 -152.5 -63t-63.5 -153zM132 244l116 -116q8 -8 16 0
l116 116q8 8 0 16l-7 7q-9 9 -17 0l-83 -85v190q0 5 -3.5 8.5t-8.5 3.5h-10q-5 0 -8.5 -3.5t-3.5 -8.5v-190l-83 85q-8 9 -17 0l-7 -6q-8 -9 0 -17z" />
    <glyph glyph-name="arrow-circle-down" unicode="&#xf0ab;" 
d="M256 8q-103 0 -175.5 72.5t-72.5 175.5t72.5 175.5t175.5 72.5t175.5 -72.5t72.5 -175.5t-72.5 -175.5t-175.5 -72.5zM472 256q0 89 -63 152.5t-153 63.5q-89 0 -152.5 -63t-63.5 -153q0 -89 63 -152.5t153 -63.5q89 0 152.5 63t63.5 153zM380 252l-7 -7q-9 -9 -17 0
l-83 85v-190q0 -5 -3.5 -8.5t-8.5 -3.5h-10q-5 0 -8.5 3.5t-3.5 8.5v190l-83 -85q-8 -9 -17 -1l-7 7q-8 9 0 17l116 115q8 9 16 0l116 -115q8 -8 0 -16z" />
    <glyph glyph-name="globe" unicode="&#xf0ac;" 
d="M504 256q0 -103 -72.5 -175.5t-175.5 -72.5t-175.5 72.5t-72.5 175.5t72.5 175.5t175.5 72.5t175.5 -72.5t72.5 -175.5zM462 320h-99q10 -64 0 -128h99q20 64 0 128zM256 470q-47 -42 -67 -118h134q-20 76 -67 118zM181 320q-11 -64 0 -128h150q5 32 5 64.5t-5 63.5h-150
zM256 42q47 42 67 118h-134q20 -76 67 -118zM450 160h-93q-17 -68 -54 -115q48 11 86.5 41t60.5 74zM209 45q-37 47 -54 115h-93q22 -44 60.5 -74t86.5 -41zM50 192h99q-10 64 0 128h-99q-20 -64 0 -128zM62 352h94q16 68 53 115q-48 -11 -86.5 -41t-60.5 -74zM303 467
q37 -47 53 -115h94q-22 44 -60.5 74t-86.5 41z" />
    <glyph glyph-name="wrench" unicode="&#xf0ad;" 
d="M120 416q0 10 -7 17t-17 7t-17 -7t-7 -17t7 -17t17 -7t17 7t7 17zM491 240q-22 37 -58.5 58.5t-80.5 21.5q-21 0 -41 -5l-174 174q-24 23 -57 23t-56.5 -23.5t-23.5 -56.5t23 -57l174 -174q-5 -20 -5 -41q0 -66 47 -113t113 -47q44 0 80.5 21.5t58.5 58.5q9 16 -0.5 32
t-27.5 16h-109l-20 32l20 32h109q18 0 27.5 16t0.5 32zM278 302q-45 -23 -68 -68l-164 164q-14 14 -14 34t14 34t34 14t34 -14zM463 224h-127l-40 -64l40 -64h127q-17 -29 -46.5 -46.5t-64.5 -17.5q-53 0 -90.5 37.5t-37.5 90.5t37.5 90.5t90.5 37.5q35 0 64.5 -17.5
t46.5 -46.5z" />
    <glyph glyph-name="tasks" unicode="&#xf0ae;" 
d="M506 114h-308q-6 0 -6 -6v-24q0 -6 6 -6h308q6 0 6 6v24q0 6 -6 6zM512 268v-24q0 -6 -6 -6h-308q-6 0 -6 6v24q0 6 6 6h308q6 0 6 -6zM512 428v-24q0 -6 -6 -6h-308q-6 0 -6 6v24q0 6 6 6h308q6 0 6 -6zM68 376q-15 0 -25.5 10.5t-10.5 25.5t10.5 25.5t25.5 10.5
t25.5 -10.5t10.5 -25.5t-10.5 -25.5t-25.5 -10.5zM171 43l-7 -7q-9 -9 -18 0l-78 79l-39 -39q-8 -8 -17 0l-9 9q-8 9 0 17l55 54q8 9 17 0l96 -96q8 -9 0 -17zM171 203l-7 -7q-9 -9 -17 0l-79 79l-38 -39q-9 -8 -17 0l-9 9q-8 9 0 17l54 54q9 9 17 0l96 -96q9 -9 0 -17z" />
    <glyph glyph-name="filter" unicode="&#xf0b0;" 
d="M480 0h-448q-21 0 -29.5 20t6.5 35l183 182v187q0 15 11 24l64 56q15 14 34 5.5t19 -29.5v-243l183 -182q15 -15 6.5 -35t-29.5 -20zM288 224v256l-64 -56v-200l-192 -192h448z" />
    <glyph glyph-name="briefcase" unicode="&#xf0b1;" 
d="M464 96h-112v-40q0 -10 -7 -17t-17 -7h-144q-10 0 -17 7t-7 17v40h-112q-20 0 -34 14t-14 34v288q0 20 14 34t34 14h416q20 0 34 -14t14 -34v-288q0 -20 -14 -34t-34 -14zM192 64h128v32h-128v-32zM480 432q0 7 -4.5 11.5t-11.5 4.5h-416q-7 0 -11.5 -4.5t-4.5 -11.5
v-144h160v40q0 10 7 17t17 7h80q10 0 17 -7t7 -17v-40h160v144zM224 288h64v32h-64v-32zM32 256v-112q0 -7 4.5 -11.5t11.5 -4.5h416q7 0 11.5 4.5t4.5 11.5v112h-448z" />
    <glyph glyph-name="arrows-alt" unicode="&#xf0b2;" 
d="M322 380h-50v-108h108v50q0 22 20 30.5t36 -6.5l66 -67q10 -9 10 -23t-10 -23l-66 -67q-16 -15 -36 -6.5t-20 30.5v50h-108v-108h50q22 0 30.5 -20t-6.5 -36l-67 -66q-9 -10 -23 -10t-23 10l-67 66q-15 16 -6.5 36t30.5 20h50v108h-108v-50q0 -22 -20 -30.5t-36 6.5
l-66 67q-10 9 -10 23t10 23l66 67q16 15 36 6.5t20 -30.5v-50h108v108h-50q-22 0 -30.5 20t6.5 36l67 66q9 10 23 10t23 -10l67 -66q15 -16 6.5 -36t-30.5 -20zM415 187l67 66q1 1 1 3t-1 3l-67 66q-2 2 -4.5 1t-2.5 -4v-132q0 -3 2.5 -4t4.5 1zM190 104q-3 0 -4 -2.5
t1 -4.5l66 -67q1 -1 3 -1t3 1l66 67q2 2 1 4.5t-4 2.5h-132zM97 325l-67 -66q-1 -1 -1 -3t1 -3l67 -66q2 -2 4.5 -1t2.5 4v132q0 3 -2.5 4t-4.5 -1zM253 482l-66 -67q-2 -2 -1 -4.5t4 -2.5h132q3 0 4 2.5t-1 4.5l-66 67q-1 1 -3 1t-3 -1z" />
    <glyph glyph-name="users" unicode="&#xf0c0;" 
d="M409 244q23 -30 23 -68q0 -46 -33 -79t-79 -33t-79 33t-33 79q0 38 23 68q-8 2 -17 7t-22.5 15.5t-22.5 29t-9 41.5v61q0 21 14.5 35.5t35.5 14.5h220q21 0 35.5 -14.5t14.5 -35.5v-61q0 -23 -9 -41.5t-22.5 -29t-22.5 -15.5t-17 -7zM320 96q33 0 56.5 23.5t23.5 56.5
t-23.5 56.5t-56.5 23.5t-56.5 -23.5t-23.5 -56.5t23.5 -56.5t56.5 -23.5zM448 398q0 7 -5.5 12.5t-12.5 5.5h-220q-7 0 -12.5 -5.5t-5.5 -12.5v-61q0 -21 13 -38.5t33 -23.5l21 -5q27 18 61 18t61 -18l21 6q20 5 33 22.5t13 38.5v61zM144 398v-14h-98q-6 0 -10 -4t-4 -10
v-45q0 -16 9.5 -29t25.5 -17l13 -4q22 13 48 13q15 0 29 -5q9 -16 23 -28q12 -11 27 -18q-15 -28 -15 -61q0 -24 9 -47q-29 -33 -73 -33q-40 0 -68 28t-28 68q0 32 20 58q-22 8 -37 28t-15 47v45q0 19 13.5 32.5t32.5 13.5h101q-3 -9 -3 -18zM128 128q27 0 45.5 18.5
t18.5 45.5t-18.5 45.5t-45.5 18.5t-45.5 -18.5t-18.5 -45.5t18.5 -45.5t45.5 -18.5zM588 250q20 -26 20 -58q0 -40 -28 -68t-68 -28q-44 0 -73 33q9 23 9 47q0 33 -15 61q15 7 27 18q14 12 23 28q14 5 29 5q26 0 48 -13l13 4q16 4 25.5 17t9.5 29v45q0 6 -4 10t-10 4h-98v14
q0 9 -3 18h101q19 0 32.5 -13.5t13.5 -32.5v-45q0 -27 -15 -47t-37 -28zM512 256q-27 0 -45.5 -18.5t-18.5 -45.5t18.5 -45.5t45.5 -18.5t45.5 18.5t18.5 45.5t-18.5 45.5t-45.5 18.5z" />
    <glyph glyph-name="link" unicode="&#xf0c1;" 
d="M301 395l-79 79q-38 38 -92 38t-92 -38t-38 -92t38 -92l79 -79l4 -4q5 -5 12.5 -2t7.5 11q0 7 1 14q1 6 -3 10q-31 31 -75 76q-28 27 -28 66t27.5 66.5t66.5 27.5t66 -28l80 -79q27 -28 27 -66.5t-27 -66.5q-12 -12 -28 -19q-8 -3 -7 -11q0 -8 3 -16q1 -5 6 -7t10 0
q23 10 41 28q38 38 38 92t-38 92zM211 301q18 18 41 28q5 2 10 0t6 -7q3 -8 3 -16q1 -8 -7 -11q-16 -7 -28 -19q-27 -28 -27 -66.5t27 -66.5l80 -79q27 -28 66 -28t66.5 27.5t27.5 66.5t-28 66q-64 65 -75 76q-4 4 -3 10q1 7 1 14q0 8 7.5 11t12.5 -2l4 -4l79 -79
q38 -38 38 -92t-38 -92t-92 -38t-92 38l-79 79q-38 38 -38 92t38 92z" />
    <glyph glyph-name="cloud" unicode="&#xf0c2;" 
d="M272 64q45 0 81 25t52 65q24 -26 59 -26q33 0 56.5 23.5t23.5 56.5q0 28 -17 49q35 6 58 32.5t23 62.5q0 40 -28 68t-68 28h-368q-46 0 -79 -33t-33 -79q0 -42 28 -73.5t69 -37.5q-1 -8 -1 -17q0 -60 42 -102t102 -42zM272 32q-71 0 -122 49t-54 119q-43 15 -69.5 52.5
t-26.5 83.5q0 60 42 102t102 42h368q53 0 90.5 -37.5t37.5 -90.5q0 -35 -18.5 -65.5t-49.5 -47.5q4 -15 4 -31q0 -46 -33 -79t-79 -33q-25 0 -48 11q-24 -35 -62 -55t-82 -20z" />
    <glyph glyph-name="flask" unicode="&#xf0c3;" 
d="M435 411l-147 -192v-187h26q6 0 6 -6v-20q0 -6 -6 -6h-180q-6 0 -6 6v20q0 6 6 6h26v187l-147 192q-24 31 -6.5 66t56.5 35h322q39 0 56.5 -35t-6.5 -66zM385 480h-322q-19 0 -27.5 -17t2.5 -33l151 -196q3 -5 3 -10v-192h64v192q0 5 3 10l151 196q11 16 2.5 33t-27.5 17
z" />
    <glyph glyph-name="cut" unicode="&#xf0c4;" 
d="M250 256l197 -197q1 -1 1 -3t-1 -3q-10 -9 -23 -9t-22 9l-178 178l-49 -49q17 -24 17 -54q0 -40 -28 -68t-68 -28t-68 28t-28 68t28 68t68 28q30 0 54 -17l49 49l-49 49q-24 -17 -54 -17q-40 0 -68 28t-28 68t28 68t68 28t68 -28t28 -68q0 -30 -17 -54l49 -49l178 178
q9 9 22 9t23 -9q1 -1 1 -3t-1 -3zM96 192q-26 0 -45 -19t-19 -45t19 -45t45 -19t45 19t19 45t-19 45t-45 19zM96 448q-26 0 -45 -19t-19 -45t19 -45t45 -19t45 19t19 45t-19 45t-45 19zM232 256q0 8 -8 8t-8 -8t8 -8t8 8z" />
    <glyph glyph-name="copy" unicode="&#xf0c5;" 
d="M434 66l-52 -52q-14 -14 -34 -14h-172q-20 0 -34 14t-14 34v48h-80q-20 0 -34 14t-14 34v320q0 20 14 34t34 14h224q20 0 34 -14t14 -34v-48h80q20 0 34 -14t14 -34v-268q0 -20 -14 -34zM352 32q4 2 7 5l52 52q3 3 5 7h-64v-64zM288 464q0 7 -4.5 11.5t-11.5 4.5h-224
q-7 0 -11.5 -4.5t-4.5 -11.5v-320q0 -7 4.5 -11.5t11.5 -4.5h80v240q0 20 14 34t34 14h112v48zM416 368q0 7 -4.5 11.5t-11.5 4.5h-224q-7 0 -11.5 -4.5t-4.5 -11.5v-320q0 -7 4.5 -11.5t11.5 -4.5h144v72q0 10 7 17t17 7h72v240z" />
    <glyph glyph-name="paperclip" unicode="&#xf0c6;" 
d="M149.5 512q-53.5 0 -91.5 -38t-38 -91.5t38 -90.5l262 -263q29 -29 71 -29t71.5 29.5t29.5 71.5t-29 71l-223 223q-21 21 -51.5 21t-51.5 -21t-21 -51.5t21 -51.5l171 -170q8 -9 16 0l6 5q9 9 0 17l-170 171q-12 12 -12 28.5t12 28.5t28.5 12t28.5 -12l223 -222
q20 -21 20 -49.5t-20 -48.5t-48.5 -20t-49.5 20l-262 262q-28 29 -28 69t28.5 68.5t68.5 28.5t69 -28l218 -218q8 -9 17 0l5 6q9 8 0 16l-218 218q-37 38 -90.5 38z" />
    <glyph glyph-name="save" unicode="&#xf0c7;" 
d="M434 130l-84 -84q-14 -14 -34 -14h-268q-20 0 -34 14t-14 34v352q0 20 14 34t34 14h352q20 0 34 -14t14 -34v-268q0 -20 -14 -34zM288 64v96h-192v-96h192zM416 432q0 7 -4.5 11.5t-11.5 4.5h-352q-7 0 -11.5 -4.5t-4.5 -11.5v-352q0 -7 4.5 -11.5t11.5 -4.5h16v104
q0 10 7 17t17 7h208q10 0 17 -7t7 -17v-104q4 2 7 5l84 84q5 4 5 11v268zM224 232q-36 0 -62 26t-26 62t26 62t62 26t62 -26t26 -62t-26 -62t-62 -26zM224 376q-23 0 -39.5 -16.5t-16.5 -39.5t16.5 -39.5t39.5 -16.5t39.5 16.5t16.5 39.5t-16.5 39.5t-39.5 16.5z" />
    <glyph glyph-name="square" unicode="&#xf0c8;" 
d="M400 32h-352q-20 0 -34 14t-14 34v352q0 20 14 34t34 14h352q20 0 34 -14t14 -34v-352q0 -20 -14 -34t-34 -14zM416 432q0 7 -4.5 11.5t-11.5 4.5h-352q-7 0 -11.5 -4.5t-4.5 -11.5v-352q0 -7 4.5 -11.5t11.5 -4.5h352q7 0 11.5 4.5t4.5 11.5v352z" />
    <glyph glyph-name="bars" unicode="&#xf0c9;" 
d="M442 114h-436q-6 0 -6 -6v-24q0 -6 6 -6h436q6 0 6 6v24q0 6 -6 6zM442 274h-436q-6 0 -6 -6v-24q0 -6 6 -6h436q6 0 6 6v24q0 6 -6 6zM442 434h-436q-6 0 -6 -6v-24q0 -6 6 -6h436q6 0 6 6v24q0 6 -6 6z" />
    <glyph glyph-name="list-ul" unicode="&#xf0ca;" 
d="M506 114h-372q-6 0 -6 -6v-24q0 -6 6 -6h372q6 0 6 6v24q0 6 -6 6zM512 268v-24q0 -6 -6 -6h-372q-6 0 -6 6v24q0 6 6 6h372q6 0 6 -6zM512 428v-24q0 -6 -6 -6h-372q-6 0 -6 6v24q0 6 6 6h372q6 0 6 -6zM48 60q-15 0 -25.5 10.5t-10.5 25.5t10.5 25.5t25.5 10.5
t25.5 -10.5t10.5 -25.5t-10.5 -25.5t-25.5 -10.5zM48 220q-15 0 -25.5 10.5t-10.5 25.5t10.5 25.5t25.5 10.5t25.5 -10.5t10.5 -25.5t-10.5 -25.5t-25.5 -10.5zM48 380q-15 0 -25.5 10.5t-10.5 25.5t10.5 25.5t25.5 10.5t25.5 -10.5t10.5 -25.5t-10.5 -25.5t-25.5 -10.5z
" />
    <glyph glyph-name="list-ol" unicode="&#xf0cb;" 
d="M5 143q0 -10 10 -10h18v-53v-10q-2 4 -4 6l-2 1q-7 7 -14 0l-4 -5q-7 -8 0 -14l22 -21q5 -5 12 -5h10q10 0 10 10v91h18q10 0 10 10v7q0 10 -10 10h-66q-10 0 -10 -10v-7zM4 306q0 -15 8.5 -27.5t18.5 -19t18.5 -13.5t8.5 -12q0 -13 -13 -13q-8 0 -14 6q-7 7 -14 2l-6 -5
q-8 -6 -3 -13q14 -19 39 -19q18 0 30.5 10t12.5 29q0 13 -8 23.5t-17.5 16t-18 11.5t-8.5 12h45q9 0 9 9v7q0 10 -9 10h-69q-10 0 -10 -10v-4zM7 456l4 -8q5 -8 14 -2q9 5 18 5q17 0 17 -13t-23 -13h-1q-7 0 -11 -7v-2q-4 -6 2 -12l11 -14l11 -12h-12h-20q-10 0 -10 -9v-7
q0 -10 10 -10h60q10 0 10 10v2q0 7 -5 12l-21 25q14 3 22 13t8 23q0 18 -12 30.5t-34 12.5q-20 0 -36 -11q-8 -5 -2 -13zM512 108v-24q0 -6 -6 -6h-372q-6 0 -6 6v24q0 6 6 6h372q6 0 6 -6zM512 268v-24q0 -6 -6 -6h-372q-6 0 -6 6v24q0 6 6 6h372q6 0 6 -6zM512 428v-24
q0 -6 -6 -6h-372q-6 0 -6 6v24q0 6 6 6h372q6 0 6 -6z" />
    <glyph glyph-name="strikethrough" unicode="&#xf0cc;" 
d="M500 272h-488q-12 0 -12 -12v-8q0 -12 12 -12h488q12 0 12 12v8q0 12 -12 12zM301 288q58 30 58 83q0 42 -29.5 64.5t-75.5 22.5q-38 0 -70 -15.5t-32 -45.5v-9q0 -5 -3.5 -8.5t-8.5 -3.5h-10q-5 0 -8.5 3.5t-3.5 8.5v16q0 41 42.5 64t93.5 23q61 0 100.5 -33.5
t39.5 -90.5q0 -48 -30 -79h-63zM163 224h75q-38 -16 -57 -34t-19 -50q0 -38 27 -58.5t69 -20.5q30 0 60 11.5t30 32.5v11q0 5 3.5 8.5t8.5 3.5h11q5 0 8.5 -3.5t3.5 -8.5v-20q0 -31 -38 -49.5t-87 -18.5q-57 0 -94.5 30.5t-37.5 84.5q0 51 37 81z" />
    <glyph glyph-name="underline" unicode="&#xf0cd;" 
d="M0 500v-8q0 -12 12 -12h424q12 0 12 12v8q0 12 -12 12h-424q-12 0 -12 -12zM291 12v8q0 5 3.5 8.5t8.5 3.5h43v227q0 63 -32.5 95.5t-89.5 32.5q-58 0 -90 -32t-32 -95v-228h43q5 0 8.5 -3.5t3.5 -8.5v-8q0 -5 -3.5 -8.5t-8.5 -3.5h-118q-5 0 -8.5 3.5t-3.5 8.5v8
q0 5 3.5 8.5t8.5 3.5h42v229q0 78 42 118t113 40q70 0 112.5 -41t42.5 -117v-229h42q5 0 8.5 -3.5t3.5 -8.5v-8q0 -5 -3.5 -8.5t-8.5 -3.5h-118q-5 0 -8.5 3.5t-3.5 8.5z" />
    <glyph glyph-name="table" unicode="&#xf0ce;" 
d="M464 32h-416q-20 0 -34 14t-14 34v352q0 20 14 34t34 14h416q20 0 34 -14t14 -34v-352q0 -20 -14 -34t-34 -14zM160 448h-112q-7 0 -11.5 -4.5t-4.5 -11.5v-80h128v96zM160 320h-128v-96h128v96zM160 192h-128v-96h128v96zM320 448h-128v-96h128v96zM320 320h-128v-96
h128v96zM320 192h-128v-96h128v96zM480 352v80q0 7 -4.5 11.5t-11.5 4.5h-112v-96h128zM480 320h-128v-96h128v96zM480 192h-128v-96h128v96z" />
    <glyph glyph-name="magic" unicode="&#xf0d0;" 
d="M176 61l6 13l14 2l-10 9l2 14l-12 -6l-13 6l3 -13l-10 -10l14 -2zM171 35l-12 24l-26 4q-4 0 -5 3.5t2 6.5l19 18l-5 26q0 4 2.5 6t6.5 0l23 -12l23 12q4 2 6.5 0t2.5 -6l-5 -26l19 -19q3 -2 2 -5.5t-5 -3.5l-26 -4l-12 -24q-1 -3 -5 -3t-5 3zM269 19l-8 15l-18 3
q-2 0 -3 2.5t1 4.5l13 12l-3 17q-1 3 1 4t4 0l16 -8l16 8q2 1 4 0t1 -4l-3 -17l13 -13q2 -1 1 -3.5t-3 -2.5l-18 -3l-8 -15q-1 -3 -3 -3t-3 3zM77 19l-8 15l-18 3q-2 0 -3 2.5t1 4.5l13 12l-3 17q-1 3 1 4t4 0l16 -8l16 8q2 1 4 0t1 -4l-3 -17l13 -13q2 -1 1 -3.5t-3 -2.5
l-18 -3l-8 -15q-1 -3 -3 -3t-3 3zM461 210l-8 16l-18 2q-2 1 -3 3t1 4l13 12l-3 18q-1 2 1 3.5t4 0.5l16 -9l16 9q2 1 4 -0.5t1 -3.5l-3 -18l13 -12q2 -2 1 -4t-3 -3l-18 -2l-8 -16q-1 -2 -3 -2t-3 2zM76 503l-67 -67q-9 -9 -9 -22.5t9 -22.5l382 -382q9 -9 22.5 -9t22.5 9
l67 67q9 9 9 22.5t-9 22.5l-382 382q-9 9 -22.5 9t-22.5 -9zM358 221l-67 -67l-259 259l67 67zM480 99l-67 -67l-99 99l67 67z" />
    <glyph glyph-name="truck" unicode="&#xf0d1;" 
d="M592 32h-320q-20 0 -34 14t-14 34v48h-44q-20 0 -34 14l-100 100q-14 14 -14 34v108h-12q-5 0 -8.5 3.5t-3.5 8.5v8q0 5 3.5 8.5t8.5 3.5h46q-2 8 -2 16q0 33 23.5 56.5t56.5 23.5t56.5 -23.5t23.5 -56.5q0 -8 -2 -16h196q-2 8 -2 16q0 33 23.5 56.5t56.5 23.5
t56.5 -23.5t23.5 -56.5q0 -8 -2 -16h18q20 0 34 -14t14 -34v-288q0 -20 -14 -34t-34 -14zM224 384h-16q-24 -32 -64 -32t-64 32h-16v-108q0 -7 5 -11l100 -100q4 -5 11 -5h44v224zM608 368q0 7 -4.5 11.5t-11.5 4.5h-32q-24 -32 -64 -32t-64 32h-176v-304q0 -7 4.5 -11.5
t11.5 -4.5h320q7 0 11.5 4.5t4.5 11.5v288zM106 278l76 -76q3 -3 6.5 -1.5t3.5 5.5v76q0 6 -6 6h-76q-4 0 -5.5 -3.5t1.5 -6.5zM496 384q20 0 34 14t14 34t-14 34t-34 14t-34 -14t-14 -34t14 -34t34 -14zM144 384q20 0 34 14t14 34t-14 34t-34 14t-34 -14t-14 -34t14 -34
t34 -14z" />
    <glyph glyph-name="money-bill" unicode="&#xf0d6;" 
d="M616 96h-592q-10 0 -17 7t-7 17v272q0 10 7 17t17 7h592q10 0 17 -7t7 -17v-272q0 -10 -7 -17t-17 -7zM608 320q-27 0 -45.5 18.5t-18.5 45.5h-448q0 -27 -18.5 -45.5t-45.5 -18.5v-128q27 0 45.5 -18.5t18.5 -45.5h448q0 27 18.5 45.5t45.5 18.5v128zM400 256
q0 40 -23.5 68t-56.5 28t-56.5 -28t-23.5 -68t23.5 -68t56.5 -28t56.5 28t23.5 68z" />
    <glyph glyph-name="caret-down" unicode="&#xf0d7;" 
d="M288 160h-256q-21 0 -29.5 20t6.5 35l128 128q10 9 23 9t23 -9l128 -128q15 -15 6.5 -35t-29.5 -20zM160 320l-128 -128h256z" />
    <glyph glyph-name="caret-up" unicode="&#xf0d8;" 
d="M32 352h256q21 0 29.5 -20t-6.5 -35l-128 -128q-10 -9 -23 -9t-23 9l-128 128q-15 15 -6.5 35t29.5 20zM160 192l128 128h-256z" />
    <glyph glyph-name="caret-left" unicode="&#xf0d9;" 
d="M192 384v-256q0 -21 -20 -29.5t-35 6.5l-128 128q-9 10 -9 23t9 23l128 128q15 15 35 6.5t20 -29.5zM32 256l128 -128v256z" />
    <glyph glyph-name="caret-right" unicode="&#xf0da;" 
d="M0 128v256q0 21 20 29.5t35 -6.5l128 -128q9 -10 9 -23t-9 -23l-128 -128q-15 -15 -35 -6.5t-20 29.5zM160 256l-128 128v-256z" />
    <glyph glyph-name="columns" unicode="&#xf0db;" 
d="M464 32h-416q-20 0 -34 14t-14 34v352q0 20 14 34t34 14h416q20 0 34 -14t14 -34v-352q0 -20 -14 -34t-34 -14zM240 448h-192q-7 0 -11.5 -4.5t-4.5 -11.5v-336h208v352zM480 432q0 7 -4.5 11.5t-11.5 4.5h-192v-352h208v336z" />
    <glyph glyph-name="sort" unicode="&#xf0dc;" 
d="M288 288h-256q-21 0 -29.5 20t6.5 35l128 128q10 9 23 9t23 -9l128 -128q15 -15 6.5 -35t-29.5 -20zM160 448l-128 -128h256zM32 224h256q21 0 29.5 -20t-6.5 -35l-128 -128q-10 -9 -23 -9t-23 9l-128 128q-15 15 -6.5 35t29.5 20zM160 64l128 128h-256z" />
    <glyph glyph-name="sort-down" unicode="&#xf0dd;" 
d="M288 288h-256q-21 0 -29.5 20t6.5 35l128 128q10 9 23 9t23 -9l128 -128q15 -15 6.5 -35t-29.5 -20zM160 448l-128 -128h256z" />
    <glyph glyph-name="sort-up" unicode="&#xf0de;" 
d="M32 224h256q21 0 29.5 -20t-6.5 -35l-128 -128q-10 -9 -23 -9t-23 9l-128 128q-15 15 -6.5 35t29.5 20zM160 64l128 128h-256z" />
    <glyph glyph-name="envelope" unicode="&#xf0e0;" 
d="M464 64h-416q-20 0 -34 14t-14 34v288q0 20 14 34t34 14h416q20 0 34 -14t14 -34v-288q0 -20 -14 -34t-34 -14zM48 96h416q7 0 11.5 4.5t4.5 11.5v41q-35 30 -151 122q-1 1 -14.5 12t-20.5 16t-18.5 11t-19.5 6t-19.5 -6t-18.5 -11t-21 -16.5l-14 -11.5
q-116 -92 -151 -122v-41q0 -7 4.5 -11.5t11.5 -4.5zM464 416h-416q-7 0 -11.5 -4.5t-4.5 -11.5v-205q35 28 131 105q2 1 13.5 11t18 15t18 12t22.5 10.5t21 3.5t21 -3.5t22 -10.5t18 -12t18.5 -15t13.5 -11q96 -77 131 -105v205q0 7 -4.5 11.5t-11.5 4.5z" />
    <glyph glyph-name="undo" unicode="&#xf0e2;" 
d="M20 8h10q12 0 12 12v111q33 -57 90 -90t125 -33q102 0 174.5 73t72.5 175q0 103 -72.5 175.5t-175.5 72.5q-95 0 -166 -64q-10 -8 -1 -17l7 -7q8 -8 17 -1q61 55 143 55q88 0 151 -62.5t63 -151.5q0 -88 -62.5 -151t-151.5 -63q-61 0 -112 31.5t-78 84.5h114q12 0 12 12
v10q0 12 -12 12h-160q-12 0 -12 -12v-160q0 -12 12 -12z" />
    <glyph glyph-name="gavel" unicode="&#xf0e3;" 
d="M501 187l-21 -21q-9 -10 -22.5 -11t-23.5 5l-82 -82q6 -10 5 -23.5t-11 -22.5l-21 -21q-11 -11 -26.5 -11t-26.5 11l-114 114q-11 11 -11 26.5t11 26.5l21 21q9 9 22.5 10.5t24.5 -5.5l29 30l-58 59l-9 -8q-12 -13 -30 -13t-31 13l-114 114q-13 13 -13 31t13 30l39 39
q12 13 30 13t31 -13l114 -114q13 -13 13 -31t-13 -30l-8 -9l59 -58l30 29q-7 11 -5.5 24.5t10.5 22.5l21 21q11 11 26.5 11t26.5 -11l114 -114q11 -11 11 -26.5t-11 -26.5zM205 362l-115 115q-8 8 -16 0l-39 -39q-8 -8 0 -16l115 -115q8 -8 16 0l39 39q8 8 0 16zM478 218
l-113 113q-2 2 -4.5 2t-4.5 -2l-20 -21q-2 -1 -2 -3.5t2 -4.5l16 -16l-126 -126l-16 16q-2 2 -4.5 2t-3.5 -2l-21 -20q-2 -2 -2 -4.5t2 -4.5l113 -113q2 -2 4.5 -2t4.5 2l20 20q2 2 2 4.5t-2 4.5l-16 16l126 126l16 -16q2 -2 4.5 -2t4.5 2l20 20q2 2 2 4.5t-2 4.5z" />
    <glyph glyph-name="tachometer" unicode="&#xf0e4;" 
d="M365.5 137q-6.5 -2 -12.5 0.5t-8 9.5l-51 141q-28 -2 -49 17t-21 47q0 27 18.5 45.5t45.5 18.5t45.5 -18.5t18.5 -45.5q0 -34 -28 -53l51 -142q2 -6 -0.5 -12t-9 -8zM288 384q-13 0 -22.5 -9.5t-9.5 -22.5t9.5 -22.5t22.5 -9.5t22.5 9.5t9.5 22.5t-9.5 22.5t-22.5 9.5z
M288 32q-119 0 -203.5 84.5t-84.5 203.5q0 72 33 134q6 11 18.5 18.5t24.5 7.5h424q12 0 24.5 -7.5t18.5 -18.5q33 -62 33 -134q0 -119 -84.5 -203.5t-203.5 -84.5zM514 439q-4 9 -14 9h-424q-10 0 -14 -9q-30 -55 -30 -119q0 -106 75 -181t181 -75t181 75t75 181
q0 64 -30 119z" />
    <glyph glyph-name="bolt" unicode="&#xf0e7;" 
d="M186 32q8 0 13 6.5t3 13.5l-34 124h104q9 0 13.5 8t0.5 16l-152 272q-5 8 -14 8q-8 0 -12.5 -6t-2.5 -14l49 -188h-106q-7 0 -12 -5t-4 -13l20 -208q0 -6 5 -10t11 -4h118zM186 0h-118q-19 0 -32.5 12.5t-15.5 30.5l-20 208q-2 22 12.5 37.5t35.5 15.5h64l-38 148
q-6 23 8.5 41.5t37.5 18.5q28 0 42 -25l152 -272q13 -24 -1 -47.5t-41 -23.5h-62l22 -84q7 -22 -7.5 -41t-38.5 -19z" />
    <glyph glyph-name="sitemap" unicode="&#xf0e8;" 
d="M616 320h-72v-48q0 -20 -14 -34t-34 -14h-160v-32h56q10 0 17 -7t7 -17v-144q0 -10 -7 -17t-17 -7h-144q-10 0 -17 7t-7 17v144q0 10 7 17t17 7h56v32h-160q-20 0 -34 14t-14 34v48h-72q-10 0 -17 7t-7 17v144q0 10 7 17t17 7h144q10 0 17 -7t7 -17v-144q0 -10 -7 -17
t-17 -7h-40v-48q0 -7 4.5 -11.5t11.5 -4.5h160v64h-56q-10 0 -17 7t-7 17v144q0 10 7 17t17 7h144q10 0 17 -7t7 -17v-144q0 -10 -7 -17t-17 -7h-56v-64h160q7 0 11.5 4.5t4.5 11.5v48h-40q-10 0 -17 7t-7 17v144q0 10 7 17t17 7h144q10 0 17 -7t7 -17v-144q0 -10 -7 -17
t-17 -7zM160 352v128h-128v-128h128zM384 352v128h-128v-128h128zM256 160v-128h128v128h-128zM608 480h-128v-128h128v128z" />
    <glyph glyph-name="umbrella" unicode="&#xf0e9;" 
d="M575 254q-21 -90 -97 -145.5t-174 -60.5v-32q0 -7 -4.5 -11.5t-11.5 -4.5t-11.5 4.5t-4.5 11.5v32q-97 5 -173 60t-98 146q-5 18 11.5 28t32.5 -3q67 -63 125 27q9 14 23.5 13.5t22.5 -13.5q29 -44 56 -51v177q0 20 -14 34t-34 14t-34 -14t-14 -34q0 -7 -4.5 -11.5
t-11.5 -4.5t-11.5 4.5t-4.5 11.5q0 33 23.5 56.5t56.5 23.5t56.5 -23.5t23.5 -56.5v-177q14 4 26 14.5t16.5 16.5t13.5 20q8 13 22.5 13.5t23.5 -13.5q58 -90 125 -27q16 13 32.5 3t11.5 -28zM383 282q-37 -61 -95 -61q-54 0 -95 61q-30 -49 -75 -59t-81 20
q26 -76 96 -119.5t155 -43.5t155.5 44t95.5 120q-45 -31 -84 -20t-72 58z" />
    <glyph glyph-name="paste" unicode="&#xf0ea;" 
d="M434 194l-52 -52q-14 -14 -34 -14h-28v-48q0 -20 -14 -34t-34 -14h-67q-5 -14 -17.5 -23t-27.5 -9t-27.5 9t-17.5 23h-67q-20 0 -34 14t-14 34v288q0 20 14 34t34 14h80v48q0 20 14 34t34 14h224q20 0 34 -14t14 -34v-236q0 -20 -14 -34zM411 217q3 3 5 7h-64v-64
q4 2 7 5zM160 30q7 0 12.5 5.5t5.5 12.5t-5.5 12.5t-12.5 5.5t-12.5 -5.5t-5.5 -12.5t5.5 -12.5t12.5 -5.5zM48 384q-7 0 -11.5 -4.5t-4.5 -11.5v-288q0 -7 4.5 -11.5t11.5 -4.5h67q5 14 17.5 23t27.5 9t27.5 -9t17.5 -23h67q7 0 11.5 4.5t4.5 11.5v48h-112q-20 0 -34 14
t-14 34v208h-80zM400 480h-224q-7 0 -11.5 -4.5t-4.5 -11.5v-288q0 -7 4.5 -11.5t11.5 -4.5h144v72q0 10 7 17t17 7h72v208q0 7 -4.5 11.5t-11.5 4.5z" />
    <glyph glyph-name="lightbulb" unicode="&#xf0eb;" 
d="M192 80q0 7 -4.5 11.5t-11.5 4.5q-26 0 -45 19t-19 45q0 7 -4.5 11.5t-11.5 4.5t-11.5 -4.5t-4.5 -11.5q0 -40 28 -68t68 -28q7 0 11.5 4.5t4.5 11.5zM368 176q0 35 -9 59t-21.5 37t-30 38.5t-30.5 58.5q-1 4 -5 8v87q0 8 -5 15l-20 24q-7 9 -19 9h-72q-12 0 -19 -9
l-20 -24q-5 -7 -5 -15v-87q-4 -4 -6 -8q-12 -33 -30 -58.5t-30 -38.5t-21 -37.5t-9 -59.5q0 -73 51.5 -124t124.5 -51t124.5 51.5t51.5 124.5zM240 448h-96v13l15 19h66l15 -19v-13zM240 384h-96v32h96v-32zM336 176q0 -60 -42 -102t-102 -42t-102 42t-42 102q0 30 8 50
t19 31t28.5 36t30.5 59h116q13 -34 30.5 -59t28.5 -36t19 -31t8 -50z" />
    <glyph glyph-name="exchange" unicode="&#xf0ec;" 
d="M508 184l-92 92q-8 9 -17 0l-7 -7q-9 -8 0 -17l61 -60h-441q-5 0 -8.5 -3.5t-3.5 -8.5v-8q0 -5 3.5 -8.5t8.5 -3.5h441l-61 -60q-9 -9 0 -17l7 -7q9 -9 17 0l92 92q9 8 0 16zM4 344l92 92q8 9 17 0l7 -7q9 -8 0 -17l-61 -60h441q5 0 8.5 -3.5t3.5 -8.5v-8q0 -5 -3.5 -8.5
t-8.5 -3.5h-441l61 -60q9 -9 0 -17l-7 -7q-9 -9 -17 0l-92 92q-9 8 0 16z" />
    <glyph glyph-name="cloud-download" unicode="&#xf0ed;" 
d="M272 64q45 0 81 25t52 65q24 -26 59 -26q33 0 56.5 23.5t23.5 56.5q0 28 -17 49q35 6 58 32.5t23 62.5q0 40 -28 68t-68 28h-368q-46 0 -79 -33t-33 -79q0 -42 28 -73.5t69 -37.5q-1 -8 -1 -17q0 -60 42 -102t102 -42zM272 32q-71 0 -122 49t-54 119q-43 15 -69.5 52.5
t-26.5 83.5q0 60 42 102t102 42h368q53 0 90.5 -37.5t37.5 -90.5q0 -35 -18.5 -65.5t-49.5 -47.5q4 -15 4 -31q0 -46 -33 -79t-79 -33q-25 0 -48 11q-24 -35 -62 -55t-82 -20zM288 172v151l-68 -68q-9 -9 -17 0l-6 5q-8 9 0 17l99 99q8 8 16 0l99 -99q8 -8 0 -17l-6 -5
q-8 -9 -17 0l-68 68v-151q0 -5 -3.5 -8.5t-8.5 -3.5h-8q-5 0 -8.5 3.5t-3.5 8.5z" />
    <glyph glyph-name="cloud-upload" unicode="&#xf0ee;" 
d="M272 64q45 0 81 25t52 65q24 -26 59 -26q33 0 56.5 23.5t23.5 56.5q0 28 -17 49q35 6 58 32.5t23 62.5q0 40 -28 68t-68 28h-368q-46 0 -79 -33t-33 -79q0 -42 28 -73.5t69 -37.5q-1 -8 -1 -17q0 -60 42 -102t102 -42zM272 32q-71 0 -122 49t-54 119q-43 15 -69.5 52.5
t-26.5 83.5q0 60 42 102t102 42h368q53 0 90.5 -37.5t37.5 -90.5q0 -35 -18.5 -65.5t-49.5 -47.5q4 -15 4 -31q0 -46 -33 -79t-79 -33q-25 0 -48 11q-24 -35 -62 -55t-82 -20zM320 372v-151l68 68q9 9 17 0l6 -5q8 -9 0 -17l-99 -99q-8 -8 -16 0l-99 99q-8 8 0 17l6 5
q8 9 17 0l68 -68v151q0 5 3.5 8.5t8.5 3.5h8q5 0 8.5 -3.5t3.5 -8.5z" />
    <glyph glyph-name="user-md" unicode="&#xf0f0;" 
d="M367 242l-30 -9q31 -39 31 -89q0 -60 -42 -102t-102 -42t-102 42t-42 102q0 50 31 89l-30 9q-42 12 -61.5 44t-19.5 63v104q0 24 17.5 41.5t41.5 17.5h330q24 0 41.5 -17.5t17.5 -41.5v-104q0 -31 -19.5 -63t-61.5 -44zM224 32q46 0 79 33t33 79t-33 79t-79 33t-79 -33
t-33 -79t33 -79t79 -33zM128 352q13 0 22.5 9.5t9.5 22.5t-9.5 22.5t-22.5 9.5t-22.5 -9.5t-9.5 -22.5t9.5 -22.5t22.5 -9.5zM416 453q0 11 -8 19t-19 8h-330q-11 0 -19 -8t-8 -19v-104q0 -26 16 -47.5t42 -28.5l22 -7v56q-22 6 -35.5 24t-12.5 41q1 25 18.5 42.5t42.5 18.5
q27 1 47 -18t20 -46q0 -22 -13.5 -39.5t-34.5 -22.5v-58q36 24 80 24q34 0 64 -15v17q-28 5 -46 27t-18 51v59q0 10 10 12l31 6q12 3 14 -9l2 -8q2 -12 -10 -14l-15 -3v-42q0 -20 13.5 -34.5t33.5 -14.5t34.5 14t14.5 34v43l-15 3q-12 2 -10 14l2 8q2 12 14 9l31 -6
q10 -2 10 -12v-59q0 -29 -18 -51t-46 -27v-28l38 11q26 7 42 28.5t16 47.5v104z" />
    <glyph glyph-name="stethoscope" unicode="&#xf0f1;" 
d="M430 96q-33 1 -55.5 25t-22.5 57q0 28 18.5 49.5t45.5 27.5v105q0 50 -37.5 85t-90.5 35t-90.5 -35t-37.5 -85v-8q54 -6 91 -47t37 -97v-182q0 -10 -9 -12l-55 -14q-12 -3 -15 9l-2 8q-3 11 9 14l40 10v166q0 47 -32.5 80t-78.5 33q-47 1 -80 -32t-33 -80v-167l40 -10
q12 -3 9 -14l-2 -8q-3 -12 -15 -9l-55 14q-9 2 -9 12v182q0 56 37 97t91 47v8q0 63 47 107.5t113 44.5t113 -44.5t47 -107.5v-105q28 -6 46 -28t18 -51q0 -33 -24 -56.5t-58 -23.5zM432 224q-20 0 -34 -14t-14 -33.5t14 -34t34 -14.5t34 14.5t14 34t-14 33.5t-34 14z
M456 176.5q0 9.5 -7 16.5t-17 7t-17 -7t-7 -16.5t7 -16.5t17 -7t17 7t7 16.5z" />
    <glyph glyph-name="suitcase" unicode="&#xf0f2;" 
d="M464 96h-112v-40q0 -10 -7 -17t-17 -7h-144q-10 0 -17 7t-7 17v40h-112q-20 0 -34 14t-14 34v288q0 20 14 34t34 14h416q20 0 34 -14t14 -34v-288q0 -20 -14 -34t-34 -14zM192 64h128v32h-128v-32zM384 128v320h-256v-320h256zM32 432v-288q0 -7 4.5 -11.5t11.5 -4.5h48
v320h-48q-7 0 -11.5 -4.5t-4.5 -11.5zM480 432q0 7 -4.5 11.5t-11.5 4.5h-48v-320h48q7 0 11.5 4.5t4.5 11.5v288z" />
    <glyph glyph-name="bell" unicode="&#xf0f3;" 
d="M434 366q-16 -15 -24 -27t-17 -46.5t-9 -84.5q0 -59 -38 -103.5t-96 -54.5q6 -8 6 -18q0 -13 -9.5 -22.5t-22.5 -9.5t-22.5 9.5t-9.5 22.5q0 10 6 18q-58 10 -96 54.5t-38 103.5q0 50 -9 84.5t-17 46.5t-24 27q-23 23 -10.5 52.5t44.5 29.5h112q0 26 19 45t45 19t45 -19
t19 -45h112q32 0 44.5 -29.5t-10.5 -52.5zM224 480q-13 0 -22.5 -9.5t-9.5 -22.5h64q0 13 -9.5 22.5t-22.5 9.5zM400 416h-352q-11 0 -15 -10t4 -17q30 -30 44.5 -68.5t14.5 -112.5q0 -53 37.5 -90.5t90.5 -37.5t90.5 37.5t37.5 90.5q0 74 14.5 112.5t44.5 68.5q8 7 4 17
t-15 10z" />
    <glyph glyph-name="coffee" unicode="&#xf0f4;" 
d="M518 448h-492q-19 0 -25 -19q-4 -13 5 -13h532q10 0 5 15q-7 17 -25 17zM576 159q0 40 -28 68.5t-68 28.5h-32v32q0 40 -28 68t-68 28h-192q-40 0 -68 -28t-28 -68v-212q0 -12 12 -12h403q40 0 68.5 28t28.5 67zM416 96h-320v192q0 26 19 45t45 19h192q26 0 45 -19
t19 -45v-192zM544 160q0 -26 -19 -45t-45 -19h-32v128h32q26 0 45 -19t19 -45z" />
    <glyph glyph-name="hospital" unicode="&#xf0f8;" 
d="M180 352h-40q-12 0 -12 -12v-40q0 -12 12 -12h40q12 0 12 12v40q0 12 -12 12zM268 352h40q12 0 12 -12v-40q0 -12 -12 -12h-40q-12 0 -12 12v40q0 12 12 12zM140 256h40q12 0 12 -12v-40q0 -12 -12 -12h-40q-12 0 -12 12v40q0 12 12 12zM268 256h40q12 0 12 -12v-40
q0 -12 -12 -12h-40q-12 0 -12 12v40q0 12 12 12zM448 512h-448v-20q0 -12 12 -12h20v-395q0 -9 7 -15t17 -6h88v-40q0 -10 7 -17t17 -7h112q10 0 17 7t7 17v40h88q10 0 17 6t7 15v395h20q12 0 12 12v20zM64 480h128v-84q0 -12 12 -12h40q12 0 12 12v84h128v-384h-80v40
q0 10 -7 17t-17 7h-112q-10 0 -17 -7t-7 -17v-40h-80v384zM266 64h-26v-26q0 -6 -6 -6h-20q-6 0 -6 6v26h-26q-6 0 -6 6v20q0 6 6 6h26v26q0 6 6 6h20q6 0 6 -6v-26h26q6 0 6 -6v-20q0 -6 -6 -6z" />
    <glyph glyph-name="ambulance" unicode="&#xf0f9;" 
d="M592 32h-320q-20 0 -34 14t-14 34v48h-44q-20 0 -34 14l-100 100q-14 14 -14 34v108h-12q-5 0 -8.5 3.5t-3.5 8.5v8q0 5 3.5 8.5t8.5 3.5h46q-2 8 -2 16q0 33 23.5 56.5t56.5 23.5t56.5 -23.5t23.5 -56.5q0 -8 -2 -16h196q-2 8 -2 16q0 33 23.5 56.5t56.5 23.5
t56.5 -23.5t23.5 -56.5q0 -8 -2 -16h18q20 0 34 -14t14 -34v-288q0 -20 -14 -34t-34 -14zM224 384h-16q-24 -32 -64 -32t-64 32h-16v-108q0 -7 5 -11l100 -100q4 -5 11 -5h44v224zM608 368q0 7 -4.5 11.5t-11.5 4.5h-32q-24 -32 -64 -32t-64 32h-176v-304q0 -7 4.5 -11.5
t11.5 -4.5h320q7 0 11.5 4.5t4.5 11.5v288zM512 208v32q0 12 -12 12h-56v56q0 12 -12 12h-32q-12 0 -12 -12v-56h-56q-12 0 -12 -12v-32q0 -12 12 -12h56v-56q0 -12 12 -12h32q12 0 12 12v56h56q12 0 12 12zM106 278l76 -76q3 -3 6.5 -1.5t3.5 5.5v76q0 6 -6 6h-76
q-4 0 -5.5 -3.5t1.5 -6.5zM496 384q20 0 34 14t14 34t-14 34t-34 14t-34 -14t-14 -34t14 -34t34 -14zM144 384q20 0 34 14t14 34t-14 34t-34 14t-34 -14t-14 -34t14 -34t34 -14z" />
    <glyph glyph-name="medkit" unicode="&#xf0fa;" 
d="M464 96h-112v-40q0 -10 -7 -17t-17 -7h-144q-10 0 -17 7t-7 17v40h-112q-20 0 -34 14t-14 34v288q0 20 14 34t34 14h416q20 0 34 -14t14 -34v-288q0 -20 -14 -34t-34 -14zM192 64h128v32h-128v-32zM384 128v320h-256v-320h256zM32 432v-288q0 -7 4.5 -11.5t11.5 -4.5h48
v320h-48q-7 0 -11.5 -4.5t-4.5 -11.5zM480 432q0 7 -4.5 11.5t-11.5 4.5h-48v-320h48q7 0 11.5 4.5t4.5 11.5v288zM352 272v32q0 12 -12 12h-56v56q0 12 -12 12h-32q-12 0 -12 -12v-56h-56q-12 0 -12 -12v-32q0 -12 12 -12h56v-56q0 -12 12 -12h32q12 0 12 12v56h56
q12 0 12 12z" />
    <glyph glyph-name="fighter-jet" unicode="&#xf0fb;" 
d="M527 196l-103 -11l-42 -17h-15l-84 -104q37 -3 37 -16q0 -7 -14 -11.5t-33 -4.5h-129v32h16v120h-2l-64 -72h-58l-28 28v68l-8 1v94l8 1v68l28 28h58l64 -72h2v120h-16v32h129q19 0 33 -4.5t14 -11.5q0 -13 -37 -16l84 -104h15l42 -17l103 -11q3 -1 10 -2q21 -5 31 -7
t24.5 -6.5t21 -8t14 -9t10 -12t2.5 -15.5q0 -24 -22 -34.5t-80 -23.5q-7 -1 -11 -2zM522 284l-106 12l-40 16h-24l-110 136h-50v-152h-48l-64 72h-30l-10 -9v-55h8v-16h42v-6l-58 -7v-38l58 -7v-6h-42v-16h-8v-55l10 -9h30l64 72h48v-152h50l110 136h24l40 16l106 12
q40 8 60 14t23 8.5t3 5.5t-3 5.5t-23 8.5t-60 14z" />
    <glyph glyph-name="beer" unicode="&#xf0fc;" 
d="M384 96h-32v-16q0 -20 -14 -34t-34 -14h-256q-20 0 -34 14t-14 34v352q0 20 14 34t34 14h256q20 0 34 -14t14 -34v-22l61 -30q35 -18 35 -58v-162q0 -26 -19 -45t-45 -19zM320 432q0 7 -4.5 11.5t-11.5 4.5h-256q-7 0 -11.5 -4.5t-4.5 -11.5v-352q0 -7 4.5 -11.5
t11.5 -4.5h256q7 0 11.5 4.5t4.5 11.5v352zM416 322q0 20 -18 29l-46 23v-246h32q13 0 22.5 9.5t9.5 22.5v162zM192 144v224q0 7 -4.5 11.5t-11.5 4.5t-11.5 -4.5t-4.5 -11.5v-224q0 -7 4.5 -11.5t11.5 -4.5t11.5 4.5t4.5 11.5zM128 144v224q0 7 -4.5 11.5t-11.5 4.5
t-11.5 -4.5t-4.5 -11.5v-224q0 -7 4.5 -11.5t11.5 -4.5t11.5 4.5t4.5 11.5zM256 144v224q0 7 -4.5 11.5t-11.5 4.5t-11.5 -4.5t-4.5 -11.5v-224q0 -7 4.5 -11.5t11.5 -4.5t11.5 4.5t4.5 11.5z" />
    <glyph glyph-name="h-square" unicode="&#xf0fd;" 
d="M400 32h-352q-20 0 -34 14t-14 34v352q0 20 14 34t34 14h352q20 0 34 -14t14 -34v-352q0 -20 -14 -34t-34 -14zM416 432q0 7 -4.5 11.5t-11.5 4.5h-352q-7 0 -11.5 -4.5t-4.5 -11.5v-352q0 -7 4.5 -11.5t11.5 -4.5h352q7 0 11.5 4.5t4.5 11.5v352zM336 140v232
q0 12 -12 12h-8q-12 0 -12 -12v-100h-160v100q0 12 -12 12h-8q-12 0 -12 -12v-232q0 -12 12 -12h8q12 0 12 12v100h160v-100q0 -12 12 -12h8q12 0 12 12z" />
    <glyph glyph-name="plus-square" unicode="&#xf0fe;" 
d="M400 64q7 0 11.5 4.5t4.5 11.5v352q0 7 -4.5 11.5t-11.5 4.5h-352q-7 0 -11.5 -4.5t-4.5 -11.5v-352q0 -7 4.5 -11.5t11.5 -4.5h352zM400 32h-352q-20 0 -34 14t-14 34v352q0 20 14 34t34 14h352q20 0 34 -14t14 -34v-352q0 -20 -14 -34t-34 -14zM340 238h-98v-98
q0 -12 -12 -12h-12q-12 0 -12 12v98h-98q-12 0 -12 12v12q0 12 12 12h98v98q0 12 12 12h12q12 0 12 -12v-98h98q12 0 12 -12v-12q0 -12 -12 -12z" />
    <glyph glyph-name="angle-double-left" unicode="&#xf100;" 
d="M153 248l118 -116q8 -9 17 0l7 7q9 8 0 17l-102 100l102 100q8 9 0 17l-7 7q-9 9 -17 0l-118 -116q-8 -8 0 -16zM25 264l118 116q8 9 17 0l7 -7q8 -8 0 -17l-102 -100l102 -100q8 -9 0 -17l-7 -7q-9 -9 -17 0l-118 116q-8 8 0 16z" />
    <glyph glyph-name="angle-double-right" unicode="&#xf101;" 
d="M167 264l-118 116q-8 9 -17 0l-7 -7q-8 -8 0 -17l102 -100l-102 -100q-8 -9 0 -17l7 -7q9 -9 17 0l118 116q8 8 0 16zM295 248l-118 -116q-8 -9 -17 0l-7 7q-9 8 0 17l102 100l-102 100q-8 9 0 17l7 7q9 9 17 0l118 -116q8 -8 0 -16z" />
    <glyph glyph-name="angle-double-up" unicode="&#xf102;" 
d="M136 249l116 118q9 8 0 17l-7 7q-8 9 -17 0l-100 -102l-100 102q-4 3 -9 3t-8 -3l-8 -7q-8 -9 0 -17l116 -118q9 -8 17 0zM120 121l-116 118q-9 8 0 17l7 7q8 9 17 0l100 -102l100 102q9 8 17 0l7 -7q9 -9 0 -17l-116 -118q-8 -8 -16 0z" />
    <glyph glyph-name="angle-double-down" unicode="&#xf103;" 
d="M120 263l-116 -118q-9 -8 0 -17l7 -7q3 -4 8 -4t9 4l100 102l100 -102q9 -8 17 0l7 7q9 9 0 17l-116 118q-8 8 -16 0zM136 391l116 -118q9 -8 0 -17l-7 -7q-8 -9 -17 0l-100 102l-100 -102q-4 -3 -9 -3t-8 3l-8 7q-8 9 0 17l116 118q9 8 17 0z" />
    <glyph glyph-name="angle-left" unicode="&#xf104;" 
d="M25 248l118 -116q8 -9 17 0l7 7q9 8 0 17l-102 100l102 100q8 9 0 17l-7 7q-9 9 -17 0l-118 -116q-8 -8 0 -16z" />
    <glyph glyph-name="angle-right" unicode="&#xf105;" 
d="M167 264l-118 116q-8 9 -17 0l-7 -7q-8 -8 0 -17l102 -100l-102 -100q-8 -9 0 -17l7 -7q9 -9 17 0l118 116q8 8 0 16z" />
    <glyph glyph-name="angle-up" unicode="&#xf106;" 
d="M136 185l116 118q9 8 0 17l-7 7q-8 9 -17 0l-100 -102l-100 102q-4 3 -9 3t-8 -3l-8 -7q-8 -9 0 -17l116 -118q9 -8 17 0z" />
    <glyph glyph-name="angle-down" unicode="&#xf107;" 
d="M120 327l-116 -118q-9 -8 0 -17l7 -7q8 -9 17 0l100 102l100 -102q9 -8 17 0l7 7q9 9 0 17l-116 118q-8 8 -16 0z" />
    <glyph glyph-name="desktop" unicode="&#xf108;" 
d="M528 0h-480q-20 0 -34 14t-14 34v288q0 20 14 34t34 14h192l-24 96h-72q-7 0 -11.5 4.5t-4.5 11.5t4.5 11.5t11.5 4.5h288q7 0 11.5 -4.5t4.5 -11.5t-4.5 -11.5t-11.5 -4.5h-72l-24 -96h192q20 0 34 -14t14 -34v-288q0 -20 -14 -34t-34 -14zM249 480l16 -64h46l16 64h-78
zM544 336q0 7 -4.5 11.5t-11.5 4.5h-480q-7 0 -11.5 -4.5t-4.5 -11.5v-288q0 -7 4.5 -11.5t11.5 -4.5h480q7 0 11.5 4.5t4.5 11.5v288z" />
    <glyph glyph-name="laptop" unicode="&#xf109;" 
d="M112 352h416q20 0 34 -14t14 -34v-256q0 -20 -14 -34t-34 -14h-416q-20 0 -34 14t-14 34v256q0 20 14 34t34 14zM96 48q0 -7 4.5 -11.5t11.5 -4.5h416q7 0 11.5 4.5t4.5 11.5v256q0 7 -4.5 11.5t-11.5 4.5h-416q-7 0 -11.5 -4.5t-4.5 -11.5v-256zM628 384h-262q-6 0 -6 6
v10q0 10 -7 17t-17 7h-32q-10 0 -17 -7t-7 -17v-10q0 -6 -6 -6h-262q-12 0 -12 12v68q0 20 14 34t34 14h544q20 0 34 -14t14 -34v-68q0 -12 -12 -12zM608 464q0 7 -4.5 11.5t-11.5 4.5h-544q-7 0 -11.5 -4.5t-4.5 -11.5v-48h224q0 13 9.5 22.5t22.5 9.5h64q13 0 22.5 -9.5
t9.5 -22.5h224v48z" />
    <glyph glyph-name="tablet" unicode="&#xf10a;" 
d="M256 416q0 13 -9.5 22.5t-22.5 9.5t-22.5 -9.5t-9.5 -22.5q0 -15 9 -23.5t23 -8.5q13 0 22.5 9.5t9.5 22.5zM448 48v416q0 20 -14 34t-34 14h-352q-20 0 -34 -14t-14 -34v-416q0 -20 14 -34t34 -14h352q20 0 34 14t14 34zM416 48q0 -7 -4.5 -11.5t-11.5 -4.5h-352
q-7 0 -11.5 4.5t-4.5 11.5v416q0 7 4.5 11.5t11.5 4.5h352q7 0 11.5 -4.5t4.5 -11.5v-416z" />
    <glyph glyph-name="mobile" unicode="&#xf10b;" 
d="M192 416q0 13 -9.5 22.5t-22.5 9.5t-22.5 -9.5t-9.5 -22.5t9.5 -22.5t22.5 -9.5t22.5 9.5t9.5 22.5zM320 48v416q0 20 -14 34t-34 14h-224q-20 0 -34 -14t-14 -34v-416q0 -20 14 -34t34 -14h224q20 0 34 14t14 34zM288 48q0 -7 -4.5 -11.5t-11.5 -4.5h-224
q-7 0 -11.5 4.5t-4.5 11.5v416q0 7 4.5 11.5t11.5 4.5h224q7 0 11.5 -4.5t4.5 -11.5v-416z" />
    <glyph glyph-name="quote-left" unicode="&#xf10d;" 
d="M336 480h160q20 0 34 -14t14 -34v-160q0 -20 -14 -34t-34 -14h-50q12 -42 66 -60q14 -5 23 -17.5t9 -28.5v-38q0 -23 -18.5 -37.5t-41.5 -9.5q-96 24 -146 92.5t-50 170.5v136q0 20 14 34t34 14zM320 296q0 -91 43.5 -151t128.5 -81q8 -1 14 3.5t6 12.5v38q0 12 -11 15
q-91 32 -92 123h87q7 0 11.5 4.5t4.5 11.5v160q0 7 -4.5 11.5t-11.5 4.5h-160q-7 0 -11.5 -4.5t-4.5 -11.5v-136zM48 480h160q20 0 34 -14t14 -34v-160q0 -20 -14 -34t-34 -14h-50q12 -42 66 -60q14 -5 23 -17.5t9 -28.5v-38q0 -23 -18.5 -37.5t-41.5 -9.5q-96 24 -146 92.5
t-50 170.5v136q0 20 14 34t34 14zM32 296q0 -91 43.5 -151t128.5 -81q8 -1 14 3.5t6 12.5v38q0 12 -11 15q-91 32 -92 123h87q7 0 11.5 4.5t4.5 11.5v160q0 7 -4.5 11.5t-11.5 4.5h-160q-7 0 -11.5 -4.5t-4.5 -11.5v-136z" />
    </font>
</defs>
</svg>
